<?xml version="1.0" standalone="no"?>
<!DOCTYPE svg PUBLIC "-//W3C//DTD SVG 1.1//EN" "http://www.w3.org/Graphics/SVG/1.1/DTD/svg11.dtd" >
<svg xmlns="http://www.w3.org/2000/svg">
<metadata>Designed by MingCute 2.96</metadata>
<defs>
<font id="MingCute" horiz-adv-x="1024">
<font-face units-per-em="1024" ascent="960" descent="-64" />
<missing-glyph horiz-adv-x="1024" />
<glyph unicode="&#x20;" horiz-adv-x="512" d="" />
<glyph unicode="&#xe900;" glyph-name="ABS_fill" d="M512 768v0c188.513 0 341.333-152.82 341.333-341.333s-152.82-341.333-341.333-341.333v0c-188.513 0-341.333 152.82-341.333 341.333s152.82 341.333 341.333 341.333zM469.333 512c-23.564 0-42.667-19.103-42.667-42.667v0h42.667zM426.667 298.667v85.333h42.667v-85.333c0-23.564 19.103-42.667 42.667-42.667v0h85.333c47.128 0 85.333 38.205 85.333 85.333v0 170.667c0 47.128-38.205 85.333-85.333 85.333v0h-128c-70.692 0-128-57.308-128-128v0-170.667c0-23.564 19.103-42.667 42.667-42.667s42.667 19.103 42.667 42.667v0zM597.333 341.334h-42.667v42.667h42.667zM597.333 469.334h-42.667v42.667h42.667zM204.757 657.067c5.327 7.042 8.533 15.947 8.533 25.6 0 23.564-19.103 42.667-42.667 42.667-13.911 0-26.267-6.657-34.056-16.959l-0.078-0.107c-58.571-77.235-93.824-174.96-93.824-280.917 0-0.24 0-0.48 0.001-0.72v0.038c0-105.6 34.944-203.179 93.867-281.6 7.825-10.967 20.506-18.032 34.836-18.032 23.564 0 42.667 19.103 42.667 42.667 0 10.082-3.497 19.348-9.344 26.65l0.065-0.085c-47.916 63.152-76.758 143.066-76.758 229.717 0 0.24 0 0.48 0.001 0.72v-0.038c0 86.485 28.587 166.187 76.757 230.4zM887.467 708.267c-7.825 10.967-20.506 18.032-34.836 18.032-23.564 0-42.667-19.103-42.667-42.667 0-10.082 3.497-19.348 9.344-26.65l-0.065 0.085c47.916-63.152 76.758-143.066 76.758-229.717 0-0.24 0-0.48-0.001-0.72v0.038c0-86.485-28.587-166.187-76.757-230.4-5.327-7.042-8.533-15.947-8.533-25.6 0-23.564 19.103-42.667 42.667-42.667 13.911 0 26.267 6.657 34.056 16.959l0.078 0.107c58.571 77.235 93.824 174.96 93.824 280.917 0 0.24 0 0.48-0.001 0.72v-0.038c0 105.6-34.944 203.179-93.867 281.6z" />
<glyph unicode="&#xe901;" glyph-name="ABS_line" d="M512 768c188.513 0 341.333-152.82 341.333-341.333s-152.82-341.333-341.333-341.333v0c-188.513 0-341.333 152.82-341.333 341.333s152.82 341.333 341.333 341.333v0zM136.533 708.267c7.825 10.967 20.506 18.032 34.836 18.032 23.564 0 42.667-19.103 42.667-42.667 0-10.082-3.497-19.348-9.344-26.65l0.065 0.085c-47.916-63.152-76.758-143.066-76.758-229.717 0-0.24 0-0.48 0.001-0.72v0.038c0-86.485 28.587-166.187 76.757-230.4 5.327-7.042 8.533-15.947 8.533-25.6 0-23.564-19.103-42.667-42.667-42.667-13.911 0-26.267 6.657-34.056 16.959l-0.078 0.107c-58.571 77.235-93.824 174.96-93.824 280.917 0 0.24 0 0.48 0.001 0.72v-0.038c0 105.6 34.944 203.179 93.867 281.6zM827.733 716.8c7.042 5.327 15.947 8.533 25.6 8.533 13.911 0 26.267-6.657 34.056-16.959l0.078-0.107c58.597-77.246 93.867-174.991 93.867-280.974 0-0.22 0-0.44 0-0.66v0.034c0-105.6-34.944-203.179-93.867-281.6-7.825-10.967-20.506-18.032-34.836-18.032-23.564 0-42.667 19.103-42.667 42.667 0 10.082 3.497 19.348 9.344 26.65l-0.065-0.085c47.916 63.152 76.758 143.066 76.758 229.717 0 0.24 0 0.48-0.001 0.72v-0.038c0 86.485-28.587 166.187-76.757 230.4-5.327 7.042-8.533 15.947-8.533 25.6 0 13.911 6.657 26.267 16.959 34.056l0.107 0.078zM512 682.667c-141.385 0-256-114.615-256-256s114.615-256 256-256v0c141.385 0 256 114.615 256 256s-114.615 256-256 256v0zM597.333 597.334c47.128 0 85.333-38.205 85.333-85.333v0-170.667c0-47.128-38.205-85.333-85.333-85.333v0h-85.333c-23.564 0-42.667 19.103-42.667 42.667v0 85.333h-42.667v-85.333c0-23.564-19.103-42.667-42.667-42.667s-42.667 19.103-42.667 42.667v0 170.667c0 70.692 57.308 128 128 128v0zM597.333 384h-42.667v-42.667h42.667zM469.333 512c-21.803-0.003-39.784-16.359-42.348-37.47l-0.020-0.205-0.299-4.992h42.667zM597.333 512h-42.667v-42.667h42.667z" />
<glyph unicode="&#xe902;" glyph-name="ad_circle_fill" d="M512 853.334c235.648 0 426.667-191.019 426.667-426.667s-191.019-426.667-426.667-426.667-426.667 191.019-426.667 426.667 191.019 426.667 426.667 426.667zM393.387 597.334h-18.773c-39.774-0.006-73.19-27.223-82.645-64.049l-0.129-0.591-55.893-223.701c-0.925-3.316-1.457-7.124-1.457-11.056 0-23.564 19.103-42.667 42.667-42.667 20.146 0 37.031 13.963 41.506 32.739l0.058 0.29 13.227 53.035h104.107l13.227-52.992c4.533-19.067 21.418-33.029 41.564-33.029 23.564 0 42.667 19.103 42.667 42.667 0 3.932-0.532 7.74-1.528 11.356l0.070-0.3-55.893 223.659c-9.584 37.417-42.999 64.634-82.773 64.64h-0.001zM682.667 597.334h-85.333c-23.564 0-42.667-19.103-42.667-42.667v0-256c0-23.564 19.103-42.667 42.667-42.667v0h85.333c70.692 0 128 57.308 128 128v0 85.333c0 70.692-57.308 128-128 128v0zM682.667 512c23.564 0 42.667-19.103 42.667-42.667v0-85.333c0-23.564-19.103-42.667-42.667-42.667v0h-42.667v170.667zM393.387 512l21.333-85.333h-61.44l21.333 85.333z" />
<glyph unicode="&#xe903;" glyph-name="ad_circle_line" d="M512 853.334c235.648 0 426.667-191.019 426.667-426.667s-191.019-426.667-426.667-426.667-426.667 191.019-426.667 426.667 191.019 426.667 426.667 426.667zM512 768c-188.513 0-341.333-152.82-341.333-341.333s152.82-341.333 341.333-341.333v0c188.513 0 341.333 152.82 341.333 341.333s-152.82 341.333-341.333 341.333v0zM393.387 597.334c37.341-0.016 69.073-24.014 80.63-57.427l0.18-0.599 1.92-6.613 55.936-223.701c0.78-3.050 1.227-6.552 1.227-10.159 0-23.564-19.103-42.667-42.667-42.667-18.073 0-33.522 11.237-39.74 27.106l-0.1 0.29-1.493 4.736-13.227 53.035h-104.107l-13.227-52.992c-4.791-18.712-21.503-32.324-41.394-32.324-23.564 0-42.667 19.103-42.667 42.667 0 1.919 0.127 3.809 0.372 5.661l-0.024-0.217 0.939 4.864 55.893 223.701c9.006 35.2 39.045 61.326 75.638 64.363l0.309 0.021 6.827 0.256zM682.667 597.334c0.002 0 0.005 0 0.007 0 68.051 0 123.698-53.104 127.762-120.133l0.017-0.358 0.213-7.509v-85.333c0-0.002 0-0.005 0-0.007 0-68.051-53.104-123.698-120.133-127.762l-0.358-0.017-7.509-0.213h-85.333c-21.803 0.003-39.784 16.359-42.348 37.47l-0.020 0.205-0.299 4.992v256c0.003 21.803 16.359 39.784 37.47 42.348l0.205 0.020 4.992 0.299zM682.667 512h-42.667v-170.667h42.667c21.803 0.003 39.784 16.359 42.348 37.47l0.020 0.205 0.299 4.992v85.333c-0.003 21.803-16.359 39.784-37.47 42.348l-0.205 0.020zM393.387 512h-18.773l-21.333-85.333h61.44z" />
<glyph unicode="&#xe904;" glyph-name="ad_circle_off_fill" d="M133.547 623.872l144.896-144.896-42.496-169.984c-0.78-3.050-1.227-6.552-1.227-10.159 0-23.564 19.103-42.667 42.667-42.667 18.073 0 33.522 11.237 39.74 27.106l0.1 0.29 1.493 4.736 13.227 53.035h84.139l26.581-26.624 6.613-26.368c4.781-18.727 21.5-32.352 41.401-32.352 1.679 0 3.334 0.097 4.962 0.285l-0.198-0.019 4.864 0.853 208.896-208.896c-57.032-30.375-124.719-48.214-196.573-48.214-0.222 0-0.444 0-0.666 0.001h0.034c-235.648 0-426.667 191.019-426.667 426.667 0 65.707 14.848 127.872 41.344 183.467zM512 853.334c235.648 0 426.667-191.019 426.667-426.667 0-0.2 0.001-0.436 0.001-0.673 0-97.57-32.896-187.457-88.201-259.176l0.734 0.99-8.832-11.179 41.131-41.131c7.691-7.716 12.446-18.362 12.446-30.119 0-23.564-19.103-42.667-42.667-42.667-9.874 0-18.964 3.354-26.194 8.985l0.095-0.072-4.011 3.541-682.667 682.667c-7.691 7.716-12.446 18.362-12.446 30.119 0 23.564 19.103 42.667 42.667 42.667 9.874 0 18.964-3.354 26.194-8.985l-0.095 0.072 4.011-3.541 41.131-41.131c72.697 59.946 166.793 96.299 269.379 96.299 0.232 0 0.463 0 0.695-0.001h-0.036zM682.667 597.334h-85.333c-23.564 0-42.667-19.103-42.667-42.667v0-110.336l85.333-85.333v153.003h42.667c23.564 0 42.667-19.103 42.667-42.667v0-85.333c0-23.564-19.103-42.667-42.667-42.667v0h-25.003l75.136-75.136c46.162 20.017 77.867 65.193 77.867 117.774 0 0.010 0 0.020 0 0.030v-0.001 85.333c0 70.692-57.308 128-128 128v0zM402.133 596.907l77.269-77.312-3.285 13.099c-8.833 34.55-37.911 60.346-73.565 64.181l-0.376 0.033z" />
<glyph unicode="&#xe905;" glyph-name="ad_circle_off_line" d="M512 853.334c235.648 0 426.667-191.019 426.667-426.667 0-0.196 0.001-0.427 0.001-0.659 0-102.586-36.354-196.681-96.881-270.106l0.582 0.727 41.131-41.131c7.691-7.716 12.446-18.362 12.446-30.119 0-23.564-19.103-42.667-42.667-42.667-9.874 0-18.964 3.354-26.194 8.985l0.095-0.072-4.011 3.541-41.173 41.088c-72.689-59.92-166.764-96.257-269.327-96.257-0.235 0-0.47 0-0.705 0.001h0.037c-235.648 0-426.667 191.019-426.667 426.667 0 102.4 36.096 196.437 96.256 269.995l-41.088 41.173c-7.691 7.716-12.446 18.362-12.446 30.119 0 23.564 19.103 42.667 42.667 42.667 9.874 0 18.964-3.354 26.194-8.985l-0.095 0.072 4.011-3.541 41.173-41.088c72.689 59.92 166.764 96.257 269.327 96.257 0.235 0 0.47 0 0.705-0.001h-0.037zM242.347 635.947c-44.676-57.153-71.637-130.037-71.637-209.218 0-188.513 152.82-341.333 341.333-341.333 79.171 0 152.046 26.954 209.949 72.186l-0.755-0.568zM512 768c-78.891 0-151.467-26.752-209.323-71.68l99.413-99.413c33.762-3.58 61.401-26.385 71.97-57.128l0.179-0.6 1.877-6.485 3.285-13.099 75.264-75.264v110.336c0.003 21.803 16.359 39.784 37.47 42.348l0.205 0.020 4.992 0.299h85.333c0.002 0 0.005 0 0.007 0 68.051 0 123.698-53.104 127.762-120.133l0.017-0.358 0.213-7.509v-85.333c0-0.018 0-0.039 0-0.061 0-49.669-28.29-92.731-69.637-113.95l-0.72-0.336-7.509-3.456 48.853-48.853c44.725 57.172 71.718 130.095 71.718 209.323 0 188.513-152.82 341.333-341.333 341.333-0.013 0-0.026 0-0.040 0h0.002zM278.443 478.976l137.643-137.643h-84.139l-13.227-52.992c-4.793-18.719-21.51-32.334-41.408-32.334-23.572 0-42.681 19.109-42.681 42.681 0 3.674 0.464 7.24 1.338 10.643l-0.064-0.296zM442.709 314.71l57.6-57.6c-2.894-0.7-6.217-1.102-9.633-1.102-19.895 0-36.609 13.616-41.332 32.038l-0.064 0.296zM682.667 512h-42.667v-153.003l17.664-17.664h25.003c23.564 0 42.667 19.103 42.667 42.667v0 85.333c0 23.564-19.103 42.667-42.667 42.667v0z" />
<glyph unicode="&#xe906;" glyph-name="ad_rectangle_fill" d="M810.667 768c70.692 0 128-57.308 128-128v0-426.667c0-70.692-57.308-128-128-128v0h-597.333c-70.692 0-128 57.308-128 128v0 426.667c0 70.692 57.308 128 128 128v0zM393.387 597.334h-18.773c-37.341-0.016-69.073-24.014-80.63-57.427l-0.18-0.599-1.963-6.613-55.893-223.701c-0.78-3.050-1.227-6.552-1.227-10.159 0-23.564 19.103-42.667 42.667-42.667 18.073 0 33.522 11.237 39.74 27.106l0.1 0.29 1.493 4.736 13.227 53.035h104.107l13.227-52.992c4.791-18.712 21.503-32.324 41.394-32.324 23.564 0 42.667 19.103 42.667 42.667 0 1.919-0.127 3.809-0.372 5.661l0.024-0.217-0.939 4.864-55.893 223.701c-9.584 37.417-42.999 64.634-82.773 64.64h-0.001zM768 597.334c-21.803-0.003-39.784-16.359-42.348-37.47l-0.020-0.205-0.299-4.992v-49.92c-12.674 4.614-27.305 7.283-42.559 7.283-70.692 0-128-57.308-128-128 0-68.013 53.045-123.636 120.021-127.755l0.362-0.018 7.509-0.256h85.333c21.803 0.003 39.784 16.359 42.348 37.47l0.020 0.205 0.299 4.992v256c0 23.564-19.103 42.667-42.667 42.667v0zM682.667 426.667c21.803-0.003 39.784-16.359 42.348-37.47l0.020-0.205 0.299-4.992v-42.667h-42.667c-23.564 0-42.667 19.103-42.667 42.667s19.103 42.667 42.667 42.667v0zM393.387 512l21.333-85.333h-61.44l21.333 85.333z" />
<glyph unicode="&#xe907;" glyph-name="ad_rectangle_line" d="M810.667 768c0.002 0 0.005 0 0.007 0 68.051 0 123.698-53.104 127.762-120.133l0.017-0.358 0.213-7.509v-426.667c0-0.002 0-0.005 0-0.007 0-68.051-53.104-123.698-120.133-127.762l-0.358-0.017-7.509-0.213h-597.333c-0.002 0-0.005 0-0.007 0-68.051 0-123.698 53.104-127.762 120.133l-0.017 0.358-0.213 7.509v426.667c0 0.002 0 0.005 0 0.007 0 68.051 53.104 123.698 120.133 127.762l0.358 0.017 7.509 0.213zM810.667 682.667h-597.333c-21.803-0.003-39.784-16.359-42.348-37.47l-0.020-0.205-0.299-4.992v-426.667c0.003-21.803 16.359-39.784 37.47-42.348l0.205-0.020 4.992-0.299h597.333c21.803 0.003 39.784 16.359 42.348 37.47l0.020 0.205 0.299 4.992v426.667c0 23.564-19.103 42.667-42.667 42.667v0zM393.387 597.334c37.341-0.016 69.073-24.014 80.63-57.427l0.18-0.599 1.92-6.613 55.936-223.701c0.78-3.050 1.227-6.552 1.227-10.159 0-23.564-19.103-42.667-42.667-42.667-18.073 0-33.522 11.237-39.74 27.106l-0.1 0.29-1.493 4.736-13.227 53.035h-104.107l-13.227-52.992c-4.791-18.712-21.503-32.324-41.394-32.324-23.564 0-42.667 19.103-42.667 42.667 0 1.919 0.127 3.809 0.372 5.661l-0.024-0.217 0.939 4.864 55.893 223.701c9.006 35.2 39.045 61.326 75.638 64.363l0.309 0.021 6.827 0.256zM768 597.334c21.803-0.003 39.784-16.359 42.348-37.47l0.020-0.205 0.299-4.992v-256c-0.003-21.803-16.359-39.784-37.47-42.348l-0.205-0.020-4.992-0.299h-85.333c-70.599 0.124-127.783 57.384-127.783 128 0 70.692 57.308 128 128 128 12.225 0 24.049-1.714 35.246-4.914l-0.903 0.221 8.107-2.56v49.92c0 23.564 19.103 42.667 42.667 42.667v0zM682.667 426.667c-23.544-0.027-42.619-19.119-42.619-42.667 0-21.788 16.332-39.762 37.421-42.347l0.206-0.021 4.992-0.299h42.667v42.667c0 23.564-19.103 42.667-42.667 42.667v0zM393.387 512h-18.773l-21.333-85.333h61.44z" />
<glyph unicode="&#xe908;" glyph-name="ad_rectangle_off_fill" d="M140.501 798.166c7.721 7.72 18.387 12.495 30.168 12.495 9.897 0 19.008-3.37 26.246-9.025l-0.094 0.071 4.011-3.541 30.165-30.165h579.669c0.002 0 0.005 0 0.007 0 68.051 0 123.698-53.104 127.762-120.133l0.017-0.358 0.213-7.509v-426.667c0-38.827-17.28-73.557-44.544-97.024l-6.443-5.205-1.536 1.536c6.173-7.35 9.923-16.915 9.923-27.356 0-23.564-19.103-42.667-42.667-42.667-9.929 0-19.065 3.391-26.315 9.079l0.093-0.070-4.011 3.541-682.667 682.667c-7.718 7.721-12.492 18.386-12.492 30.165s4.774 22.445 12.492 30.165v0zM88.576 668.8l189.867-189.867-42.496-169.941c-0.925-3.316-1.457-7.124-1.457-11.056 0-23.564 19.103-42.667 42.667-42.667 20.146 0 37.031 13.963 41.506 32.739l0.058 0.29 13.227 53.035h84.139l26.581-26.624 6.613-26.368c4.788-18.717 21.502-32.334 41.397-32.334 3.416 0 6.739 0.402 9.923 1.16l-0.29-0.058 171.691-171.776h-458.667c-70.692 0-128 57.308-128 128v0 426.667c0 9.899 1.109 19.541 3.243 28.8zM768 597.334c-23.564 0-42.667-19.103-42.667-42.667v0-49.92c-12.71 4.642-27.383 7.326-42.683 7.326-52.592 0-97.776-31.718-117.467-77.069l-0.32-0.827 178.133-178.176h25.003c23.564 0 42.667 19.103 42.667 42.667v0 256c0 23.564-19.103 42.667-42.667 42.667v0zM682.667 426.667c21.803-0.003 39.784-16.359 42.348-37.47l0.020-0.205 0.299-4.992v-42.667h-42.667c-23.564 0-42.667 19.103-42.667 42.667s19.103 42.667 42.667 42.667v0zM402.133 596.907l77.269-77.312-3.285 13.099c-8.833 34.55-37.911 60.346-73.565 64.181l-0.376 0.033z" />
<glyph unicode="&#xe909;" glyph-name="ad_rectangle_off_line" d="M140.501 798.166c7.721 7.72 18.387 12.495 30.168 12.495 9.897 0 19.008-3.37 26.246-9.025l-0.094 0.071 4.011-3.541 30.165-30.165h579.669c0.002 0 0.005 0 0.007 0 68.051 0 123.698-53.104 127.762-120.133l0.017-0.358 0.213-7.509v-426.667c0-38.827-17.28-73.557-44.544-97.024l-6.443-5.205-1.536 1.536c6.173-7.35 9.923-16.915 9.923-27.356 0-23.564-19.103-42.667-42.667-42.667-9.929 0-19.065 3.391-26.315 9.079l0.093-0.070-4.011 3.541-682.667 682.667c-7.718 7.721-12.492 18.386-12.492 30.165s4.774 22.445 12.492 30.165v0zM88.576 668.8l82.091-82.048v-373.419c0-23.564 19.103-42.667 42.667-42.667v0h373.419l85.333-85.333h-458.752c-70.692 0-128 57.308-128 128v0 426.667c0 9.899 1.109 19.541 3.243 28.8zM810.667 682.667h-494.336l85.76-85.76c36.084-3.815 65.221-29.627 73.941-63.622l0.129-0.591 3.243-13.099 85.461-85.461c20.001 46.198 65.196 77.934 117.802 77.934 15.294 0 29.962-2.682 43.558-7.602l-0.891 0.282v49.92c0 23.564 19.103 42.667 42.667 42.667s42.667-19.103 42.667-42.667v0-256c0-23.564-19.103-42.667-42.667-42.667v0h-25.003l82.645-82.645c16.315 6.241 27.691 21.768 27.691 39.952 0 0.009 0 0.019 0 0.028v-0.001 426.667c0 23.564-19.103 42.667-42.667 42.667v0zM278.443 478.976l137.643-137.643h-84.139l-13.227-52.992c-4.793-18.719-21.51-32.334-41.408-32.334-23.572 0-42.681 19.109-42.681 42.681 0 3.674 0.464 7.24 1.338 10.643l-0.064-0.296zM442.709 314.71l57.6-57.6c-2.894-0.7-6.217-1.102-9.633-1.102-19.895 0-36.609 13.616-41.332 32.038l-0.064 0.296zM682.667 426.667c-23.544-0.027-42.619-19.119-42.619-42.667 0-21.788 16.332-39.762 37.421-42.347l0.206-0.021 4.992-0.299h42.667v42.667c0 23.564-19.103 42.667-42.667 42.667v0z" />
<glyph unicode="&#xe90a;" glyph-name="add_circle_fill" d="M512 853.334c235.648 0 426.667-191.019 426.667-426.667s-191.019-426.667-426.667-426.667-426.667 191.019-426.667 426.667 191.019 426.667 426.667 426.667zM512 640c-21.803-0.003-39.784-16.359-42.348-37.47l-0.020-0.205-0.299-4.992v-128h-128c-23.544-0.027-42.619-19.119-42.619-42.667 0-21.788 16.332-39.762 37.421-42.347l0.206-0.021 4.992-0.299h128v-128c0.027-23.544 19.119-42.619 42.667-42.619 21.788 0 39.762 16.332 42.347 37.421l0.021 0.206 0.299 4.992v128h128c23.544 0.027 42.619 19.119 42.619 42.667 0 21.788-16.332 39.762-37.421 42.347l-0.206 0.021-4.992 0.299h-128v128c0 23.564-19.103 42.667-42.667 42.667v0z" />
<glyph unicode="&#xe90b;" glyph-name="add_circle_line" d="M512 853.334c235.648 0 426.667-191.019 426.667-426.667s-191.019-426.667-426.667-426.667-426.667 191.019-426.667 426.667 191.019 426.667 426.667 426.667zM512 768c-188.513 0-341.333-152.82-341.333-341.333s152.82-341.333 341.333-341.333v0c188.513 0 341.333 152.82 341.333 341.333s-152.82 341.333-341.333 341.333v0zM512 640c23.564 0 42.667-19.103 42.667-42.667v0-128h128c23.564 0 42.667-19.103 42.667-42.667s-19.103-42.667-42.667-42.667v0h-128v-128c0-23.564-19.103-42.667-42.667-42.667s-42.667 19.103-42.667 42.667v0 128h-128c-23.564 0-42.667 19.103-42.667 42.667s19.103 42.667 42.667 42.667v0h128v128c0 23.564 19.103 42.667 42.667 42.667v0z" />
<glyph unicode="&#xe90c;" glyph-name="add_fill" d="M448 85.334c0-35.346 28.654-64 64-64s64 28.654 64 64v0 277.333h277.333c35.346 0 64 28.654 64 64s-28.654 64-64 64v0h-277.333v277.333c0 35.346-28.654 64-64 64s-64-28.654-64-64v0-277.333h-277.333c-35.346 0-64-28.654-64-64s28.654-64 64-64v0h277.333z" />
<glyph unicode="&#xe90d;" glyph-name="add_line" d="M469.333 85.334c0-23.564 19.103-42.667 42.667-42.667s42.667 19.103 42.667 42.667v0 298.667h298.667c23.564 0 42.667 19.103 42.667 42.667s-19.103 42.667-42.667 42.667v0h-298.667v298.667c0 23.564-19.103 42.667-42.667 42.667s-42.667-19.103-42.667-42.667v0-298.667h-298.667c-23.564 0-42.667-19.103-42.667-42.667s19.103-42.667 42.667-42.667v0h298.667z" />
<glyph unicode="&#xe90e;" glyph-name="add_square_fill" d="M128 128v0c0-47.128 38.205-85.333 85.333-85.333h597.333c47.128 0 85.333 38.205 85.333 85.333v597.333c0 47.128-38.205 85.333-85.333 85.333h-597.333c-47.128 0-85.333-38.205-85.333-85.333zM298.667 426.667c0 23.564 19.103 42.667 42.667 42.667v0h128v128c0 23.564 19.103 42.667 42.667 42.667s42.667-19.103 42.667-42.667v0-128h128c23.564 0 42.667-19.103 42.667-42.667s-19.103-42.667-42.667-42.667v0h-128v-128c0-23.564-19.103-42.667-42.667-42.667s-42.667 19.103-42.667 42.667v0 128h-128c-23.564 0-42.667 19.103-42.667 42.667v0z" />
<glyph unicode="&#xe90f;" glyph-name="add_square_line" d="M128 725.334c0 47.128 38.205 85.333 85.333 85.333v0h597.333c47.128 0 85.333-38.205 85.333-85.333v0-597.333c0-47.128-38.205-85.333-85.333-85.333v0h-597.333c-47.128 0-85.333 38.205-85.333 85.333v0zM810.667 725.334h-597.333v-597.333h597.333zM512 640c23.564 0 42.667-19.103 42.667-42.667v0-128h128c23.564 0 42.667-19.103 42.667-42.667s-19.103-42.667-42.667-42.667v0h-128v-128c0-23.564-19.103-42.667-42.667-42.667s-42.667 19.103-42.667 42.667v0 128h-128c-23.564 0-42.667 19.103-42.667 42.667s19.103 42.667 42.667 42.667v0h128v128c0 23.564 19.103 42.667 42.667 42.667v0z" />
<glyph unicode="&#xe910;" glyph-name="aerial_lift_fill" d="M853.205 813.696c0.070-0.914 0.109-1.979 0.109-3.053 0-22.492-17.403-40.918-39.478-42.549l-0.141-0.008-259.029-18.432v-109.653h144.299c33.224-0.001 62.012-18.989 76.107-46.704l0.224-0.485 86.485-173.013c14.211-27.804 22.539-60.649 22.539-95.439 0-20.867-2.996-41.035-8.582-60.096l0.379 1.508-58.24-203.861c-10.527-36.031-43.266-61.906-82.048-61.909h-447.659c-0.001 0-0.003 0-0.005 0-38.77 0-71.501 25.855-81.891 61.263l-0.152 0.603-58.24 203.947c-5.212 17.561-8.211 37.738-8.211 58.615 0 34.762 8.315 67.583 23.063 96.581l-0.56-1.213 86.571 173.013c14.312 28.188 43.081 47.171 76.286 47.189h144.301v103.509l-252.971-18.048c-1.302-0.141-2.812-0.221-4.341-0.221-23.564 0-42.667 19.103-42.667 42.667 0 22.96 18.136 41.684 40.864 42.629l0.086 0.003 597.333 42.667c0.901 0.068 1.951 0.106 3.011 0.106 22.491 0 40.917-17.402 42.549-39.475l0.008-0.141zM324.992 554.667l-85.333-170.667h544.64l-85.333 170.667h-373.931z" />
<glyph unicode="&#xe911;" glyph-name="aerial_lift_line" d="M853.205 813.696c0.070-0.914 0.109-1.979 0.109-3.053 0-22.492-17.403-40.918-39.478-42.549l-0.141-0.008-259.029-18.432v-109.653h144.299c33.224-0.001 62.012-18.989 76.107-46.704l0.224-0.485 86.485-173.013c14.211-27.804 22.539-60.649 22.539-95.439 0-20.867-2.996-41.035-8.582-60.096l0.379 1.508-58.24-203.861c-10.527-36.031-43.266-61.906-82.048-61.909h-447.659c-0.001 0-0.003 0-0.005 0-38.77 0-71.501 25.855-81.891 61.263l-0.152 0.603-58.24 203.947c-5.212 17.561-8.211 37.738-8.211 58.615 0 34.762 8.315 67.583 23.063 96.581l-0.56-1.213 86.571 173.013c14.312 28.188 43.081 47.171 76.286 47.189h144.301v103.509l-252.971-18.048c-1.302-0.141-2.812-0.221-4.341-0.221-23.564 0-42.667 19.103-42.667 42.667 0 22.96 18.136 41.684 40.864 42.629l0.086 0.003 597.333 42.667c0.901 0.068 1.951 0.106 3.011 0.106 22.491 0 40.917-17.402 42.549-39.475l0.008-0.141zM512 554.667h-186.965l-85.333-170.667h544.597l-85.333 170.667h-187.008zM227.669 298.667c0.64-3.157 1.408-6.315 2.304-9.429l58.197-203.904h447.659l58.24 203.904c0.853 3.115 1.664 6.272 2.304 9.429z" />
<glyph unicode="&#xe912;" glyph-name="ai_fill" d="M388.565 706.219c25.515 74.667 128.683 76.928 158.933 6.784l2.56-6.827 34.432-100.693c16.394-47.011 51.41-83.907 95.98-102.453l1.13-0.417 9.259-3.456 100.693-34.389c74.667-25.515 76.928-128.683 6.827-158.933l-6.827-2.56-100.693-34.432c-47.028-16.384-83.941-51.402-102.495-95.98l-0.417-1.129-3.456-9.216-34.389-100.736c-25.515-74.667-128.683-76.928-158.891-6.827l-2.645 6.827-34.389 100.693c-16.384 47.028-51.402 83.941-95.98 102.495l-1.129 0.417-9.216 3.456-100.693 34.389c-74.709 25.515-76.971 128.683-6.827 158.891l6.827 2.645 100.693 34.389c47.011 16.394 83.907 51.41 102.453 95.98l0.417 1.13 3.456 9.216zM810.667 853.334c0 0 0 0 0 0 16.73 0 31.21-9.628 38.203-23.646l0.112-0.247 2.048-4.992 14.933-43.776 43.819-14.933c16.974-5.892 28.942-21.748 28.942-40.399 0-16.735-9.634-31.219-23.659-38.21l-0.248-0.112-5.035-2.048-43.776-14.933-14.933-43.819c-5.899-16.961-21.749-28.916-40.39-28.916-16.742 0-31.231 9.642-38.218 23.677l-0.112 0.248-2.048 4.992-14.933 43.776-43.819 14.933c-16.974 5.892-28.942 21.748-28.942 40.399 0 16.735 9.634 31.219 23.659 38.21l0.248 0.112 5.035 2.048 43.776 14.933 14.933 43.819c5.908 16.945 21.749 28.885 40.38 28.885 0.009 0 0.018 0 0.027 0h-0.001z" />
<glyph unicode="&#xe913;" glyph-name="ai_line" d="M388.565 706.219c25.515 74.667 128.683 76.928 158.933 6.784l2.56-6.827 34.432-100.693c16.394-47.011 51.41-83.907 95.98-102.453l1.13-0.417 9.259-3.456 100.693-34.389c74.667-25.515 76.928-128.683 6.827-158.933l-6.827-2.56-100.693-34.432c-47.028-16.384-83.941-51.402-102.495-95.98l-0.417-1.129-3.456-9.216-34.389-100.736c-25.515-74.667-128.683-76.928-158.891-6.827l-2.645 6.827-34.389 100.693c-16.384 47.028-51.402 83.941-95.98 102.495l-1.129 0.417-9.216 3.456-100.693 34.389c-74.709 25.515-76.971 128.683-6.827 158.891l6.827 2.645 100.693 34.389c47.011 16.394 83.907 51.41 102.453 95.98l0.417 1.13 3.456 9.216zM469.333 678.656l-34.389-100.693c-24.953-71.65-78.782-127.696-147.182-155.081l-1.725-0.61-10.667-3.883-100.693-34.389 100.693-34.389c71.65-24.953 127.696-78.782 155.081-147.182l0.61-1.725 3.883-10.667 34.389-100.693 34.389 100.693c24.953 71.65 78.782 127.696 147.182 155.081l1.725 0.61 10.667 3.84 100.693 34.432-100.693 34.389c-71.65 24.953-127.696 78.782-155.081 147.182l-0.61 1.725-3.84 10.667zM810.667 853.334c0 0 0 0 0 0 16.73 0 31.21-9.628 38.203-23.646l0.112-0.247 2.048-4.992 14.933-43.776 43.819-14.933c16.974-5.892 28.942-21.748 28.942-40.399 0-16.735-9.634-31.219-23.659-38.21l-0.248-0.112-5.035-2.048-43.776-14.933-14.933-43.819c-5.899-16.961-21.749-28.916-40.39-28.916-16.742 0-31.231 9.642-38.218 23.677l-0.112 0.248-2.048 4.992-14.933 43.776-43.819 14.933c-16.974 5.892-28.942 21.748-28.942 40.399 0 16.735 9.634 31.219 23.659 38.21l0.248 0.112 5.035 2.048 43.776 14.933 14.933 43.819c5.908 16.945 21.749 28.885 40.38 28.885 0.009 0 0.018 0 0.027 0h-0.001z" />
<glyph unicode="&#xe914;" glyph-name="aiming_2_fill" d="M512 853.334c21.803-0.003 39.784-16.359 42.348-37.47l0.020-0.205 0.299-4.992v-2.347c174.359-20.113 312.099-154.408 337.283-325.334l0.253-2.090 1.451-11.563h2.347c23.544-0.027 42.619-19.119 42.619-42.667 0-21.788-16.332-39.762-37.421-42.347l-0.206-0.021-4.992-0.299h-2.347c-20.113-174.359-154.408-312.099-325.334-337.283l-2.090-0.253-11.563-1.451v-2.347c-0.027-23.544-19.119-42.619-42.667-42.619-21.788 0-39.762 16.332-42.347 37.421l-0.021 0.206-0.299 4.992v2.347c-174.359 20.113-312.099 154.408-337.283 325.334l-0.253 2.090-1.451 11.563h-2.347c-23.544 0.027-42.619 19.119-42.619 42.667 0 21.788 16.332 39.762 37.421 42.347l0.206 0.021 4.992 0.299h2.347c20.113 174.359 154.408 312.099 325.334 337.283l2.090 0.253 11.563 1.451v2.347c0 23.564 19.103 42.667 42.667 42.667v0zM512 640c-117.821 0-213.333-95.513-213.333-213.333s95.513-213.333 213.333-213.333v0c117.821 0 213.333 95.513 213.333 213.333s-95.513 213.333-213.333 213.333v0zM512 554.667c70.692 0 128-57.308 128-128s-57.308-128-128-128v0c-70.692 0-128 57.308-128 128s57.308 128 128 128v0z" />
<glyph unicode="&#xe915;" glyph-name="aiming_2_line" d="M512 853.334c23.564 0 42.667-19.103 42.667-42.667v0-2.347c178.331-20.567 318.42-160.656 338.819-337.204l0.167-1.782h2.347c23.564 0 42.667-19.103 42.667-42.667s-19.103-42.667-42.667-42.667v0h-2.347c-20.567-178.331-160.656-318.42-337.204-338.819l-1.782-0.167v-2.347c0-23.564-19.103-42.667-42.667-42.667s-42.667 19.103-42.667 42.667v0 2.347c-178.331 20.567-318.42 160.656-338.819 337.204l-0.167 1.782h-2.347c-23.564 0-42.667 19.103-42.667 42.667s19.103 42.667 42.667 42.667v0h2.347c20.567 178.331 160.656 318.42 337.204 338.819l1.782 0.167v2.347c0 23.564 19.103 42.667 42.667 42.667v0zM512 725.334c-164.949 0-298.667-133.718-298.667-298.667s133.718-298.667 298.667-298.667v0c164.949 0 298.667 133.718 298.667 298.667s-133.718 298.667-298.667 298.667v0zM512 597.334c94.257 0 170.667-76.41 170.667-170.667s-76.41-170.667-170.667-170.667v0c-94.257 0-170.667 76.41-170.667 170.667s76.41 170.667 170.667 170.667v0zM512 512c-47.128 0-85.333-38.205-85.333-85.333s38.205-85.333 85.333-85.333v0c47.128 0 85.333 38.205 85.333 85.333s-38.205 85.333-85.333 85.333v0z" />
<glyph unicode="&#xe916;" glyph-name="aiming_fill" d="M554.667 87.979v-45.312c-0.027-23.544-19.119-42.619-42.667-42.619-21.788 0-39.762 16.332-42.347 37.421l-0.021 0.206-0.299 4.992v45.312c12.791-1.684 27.582-2.645 42.597-2.645 10.087 0 20.073 0.434 29.94 1.284l-1.284-0.089zM554.667 765.355c154.728-20.098 275.923-141.294 295.839-294.303l0.183-1.718h-40.021c-23.564 0-42.667-19.103-42.667-42.667s19.103-42.667 42.667-42.667v0h40.021c-20.098-154.728-141.294-275.923-294.303-295.839l-1.718-0.183v40.021c0 23.564-19.103 42.667-42.667 42.667s-42.667-19.103-42.667-42.667v0-40.021c-154.728 20.098-275.923 141.294-295.839 294.303l-0.183 1.718h40.021c23.564 0 42.667 19.103 42.667 42.667s-19.103 42.667-42.667 42.667v0h-40.021c-1.688-12.812-2.651-27.627-2.651-42.667s0.963-29.855 2.831-44.386l-0.18 1.72h-45.312c-23.564 0-42.667 19.103-42.667 42.667s19.103 42.667 42.667 42.667v0h45.312c20.098 154.728 141.294 275.923 294.303 295.839l1.718 0.183v-40.021c0-23.564 19.103-42.667 42.667-42.667s42.667 19.103 42.667 42.667v0zM512 490.667c-35.346 0-64-28.654-64-64s28.654-64 64-64v0c35.346 0 64 28.654 64 64s-28.654 64-64 64v0zM896 469.334c23.564 0 42.667-19.103 42.667-42.667s-19.103-42.667-42.667-42.667v0h-45.312c1.69 12.812 2.654 27.627 2.654 42.667s-0.964 29.855-2.835 44.386l0.181-1.72zM512 853.334c23.564 0 42.667-19.103 42.667-42.667v0-45.312c-12.812 1.688-27.627 2.651-42.667 2.651s-29.855-0.963-44.386-2.831l1.72 0.18v45.312c0 23.564 19.103 42.667 42.667 42.667v0z" />
<glyph unicode="&#xe917;" glyph-name="aiming_line" d="M512 853.334c23.564 0 42.667-19.103 42.667-42.667v0-2.347c178.331-20.567 318.42-160.656 338.819-337.204l0.167-1.782h2.347c23.564 0 42.667-19.103 42.667-42.667s-19.103-42.667-42.667-42.667v0h-2.347c-20.567-178.331-160.656-318.42-337.204-338.819l-1.782-0.167v-2.347c0-23.564-19.103-42.667-42.667-42.667s-42.667 19.103-42.667 42.667v0 2.347c-178.331 20.567-318.42 160.656-338.819 337.204l-0.167 1.782h-2.347c-23.564 0-42.667 19.103-42.667 42.667s19.103 42.667 42.667 42.667v0h2.347c20.567 178.331 160.656 318.42 337.204 338.819l1.782 0.167v2.347c0 23.564 19.103 42.667 42.667 42.667v0zM554.667 722.347v-39.68c-0.027-23.544-19.119-42.619-42.667-42.619-21.788 0-39.762 16.332-42.347 37.421l-0.021 0.206-0.299 4.992v39.68c-127.418-18.967-227.601-116.092-250.932-240.322l-0.29-1.854-1.749-10.837h39.637c23.544-0.027 42.619-19.119 42.619-42.667 0-21.788-16.332-39.762-37.421-42.347l-0.206-0.021-4.992-0.299h-39.68c18.967-127.418 116.092-227.601 240.322-250.932l1.854-0.29 10.837-1.749v39.637c0.027 23.544 19.119 42.619 42.667 42.619 21.788 0 39.762-16.332 42.347-37.421l0.021-0.206 0.299-4.992v-39.68c127.418 18.967 227.601 116.092 250.932 240.322l0.29 1.854 1.749 10.837h-39.637c-23.544 0.027-42.619 19.119-42.619 42.667 0 21.788 16.332 39.762 37.421 42.347l0.206 0.021 4.992 0.299h39.68c-18.967 127.418-116.092 227.601-240.322 250.932l-1.854 0.29zM512 490.667c35.346 0 64-28.654 64-64s-28.654-64-64-64v0c-35.346 0-64 28.654-64 64s28.654 64 64 64v0z" />
<glyph unicode="&#xe918;" glyph-name="air_balloon_fill" d="M554.667 128c23.564 0 42.667-19.103 42.667-42.667v0-42.667c0-23.564-19.103-42.667-42.667-42.667v0h-85.333c-23.564 0-42.667 19.103-42.667 42.667v0 42.667c0 23.564 19.103 42.667 42.667 42.667v0zM512 853.334c188.513 0 341.333-152.82 341.333-341.333v0c0-121.856-61.056-217.856-131.157-282.112-31.417-28.991-67.319-53.81-106.402-73.178l-2.654-1.19c-34.901-16.725-70.827-27.52-101.12-27.52s-66.219 10.795-101.12 27.52c-41.738 20.558-77.64 45.377-109.368 74.652l0.312-0.284c-70.101 64.256-131.157 160.256-131.157 282.112 0 188.513 152.82 341.333 341.333 341.333v0zM512 810.667c-38.059 0-74.496-7.125-107.947-20.096-8.32-13.781-17.451-30.379-26.581-49.579-28.587-60.117-57.472-146.389-57.472-250.325 0-97.792 25.557-180.053 52.437-239.488l5.035-10.88 4.096-8.405 8.149-15.829 10.795-6.656c35.968-21.248 70.613-34.133 97.152-37.717l7.68-0.768 6.656-0.256 6.656 0.256 7.68 0.768c26.539 3.627 61.184 16.469 97.152 37.717l10.795 6.656 8.107 15.787 4.139 8.448 5.035 10.88c32.831 70.303 52.12 152.604 52.437 239.377v0.111c0 103.936-28.843 190.208-57.472 250.325-9.131 19.2-18.261 35.797-26.539 49.579-31.903 12.72-68.875 20.096-107.569 20.096-0.148 0-0.295 0-0.443 0h0.023zM512 810.326c0.049-6.077 1.364-11.834 3.692-17.038l-0.108 0.27 2.731-5.248 8.917-11.947 8.619-12.373 7.339-11.392 4.821-8.021c6.699-11.221 14.080-24.747 21.461-40.235 24.747-51.883 49.195-125.611 49.195-213.675s-24.491-161.792-49.195-213.675c-6.144-12.928-12.288-24.448-18.048-34.432l-4.224-7.211-9.643-15.36-1.707-2.645-8.619-12.373-8.277-10.965c-2.477-3.733-4.428-8.073-5.611-12.72l-0.063-0.294-0.853-4.565-0.427-5.504-0.384 5.547-1.195 5.675c-0.788 2.832-1.733 5.269-2.884 7.585l0.111-0.247-1.963 3.499-8.917 12.032-8.619 12.331-7.339 11.392-4.821 8.021c-6.484 10.595-13.635 23.777-20.183 37.306l-1.278 2.928c-24.747 51.883-49.195 125.611-49.195 213.675s24.491 161.792 49.195 213.675c6.144 12.928 12.288 24.448 18.048 34.432l4.224 7.211 9.643 15.36 1.707 2.645 8.619 12.373 5.376 7.040 3.541 4.907c3.917 6.263 6.26 13.86 6.315 22.001v0.015z" />
<glyph unicode="&#xe919;" glyph-name="air_balloon_line" d="M554.667 128c23.564 0 42.667-19.103 42.667-42.667v0-42.667c0-23.564-19.103-42.667-42.667-42.667v0h-85.333c-23.564 0-42.667 19.103-42.667 42.667v0 42.667c0 23.564 19.103 42.667 42.667 42.667v0zM512 853.334c188.513 0 341.333-152.82 341.333-341.333v0c0-121.856-61.056-217.856-131.157-282.112-31.417-28.991-67.319-53.81-106.402-73.178l-2.654-1.19c-34.901-16.725-70.827-27.52-101.12-27.52l-10.283 0.427c-27.989 2.048-59.819 12.245-90.837 27.093-41.738 20.558-77.64 45.377-109.368 74.652l0.312-0.284c-70.101 64.256-131.157 160.256-131.157 282.112 0 188.513 152.82 341.333 341.333 341.333v0zM512 733.014c-28.288-50.773-64-136.021-64-242.347s35.712-191.573 64-242.389c28.288 50.773 64 136.064 64 242.347 0 106.368-35.712 191.616-64 242.432zM426.155 753.238c-100.014-36.377-170.154-130.616-170.155-241.237v0c0-91.477 45.611-166.144 103.509-219.221 16.634-15.29 34.945-29.328 54.448-41.653l1.574-0.929c-33.106 70.567-52.556 153.209-52.864 240.362v0.108c0 110.933 32.853 201.813 63.488 262.571zM597.845 753.238c30.635-60.715 63.488-151.637 63.488-262.571 0-98.133-25.728-180.651-52.907-240.469 21.095 13.246 39.42 27.284 56.339 42.831l-0.275-0.249c57.899 53.077 103.509 127.744 103.509 219.221 0 110.621-70.141 204.86-168.374 240.67l-1.78 0.567z" />
<glyph unicode="&#xe91a;" glyph-name="air_condition_fill" d="M810.667 682.667c70.692 0 128-57.308 128-128v0-256c0-70.692-57.308-128-128-128v0h-597.333c-70.692 0-128 57.308-128 128v0 256c0 70.692 57.308 128 128 128v0zM810.667 341.334h-597.333c-21.803-0.003-39.784-16.359-42.348-37.47l-0.020-0.205-0.299-4.992v-42.667h682.667v42.667c-0.003 21.803-16.359 39.784-37.47 42.348l-0.205 0.020zM768 554.667c-23.564 0-42.667-19.103-42.667-42.667s19.103-42.667 42.667-42.667v0c23.564 0 42.667 19.103 42.667 42.667s-19.103 42.667-42.667 42.667v0z" />
<glyph unicode="&#xe91b;" glyph-name="air_condition_line" d="M810.667 682.667c70.692 0 128-57.308 128-128v0-256c0-70.692-57.308-128-128-128v0h-597.333c-70.692 0-128 57.308-128 128v0 256c0 70.692 57.308 128 128 128v0zM810.667 597.334h-597.333c-21.803-0.003-39.784-16.359-42.348-37.47l-0.020-0.205-0.299-4.992v-256c0.003-21.803 16.359-39.784 37.47-42.348l0.205-0.020 4.992-0.299v85.333c0.003 21.803 16.359 39.784 37.47 42.348l0.205 0.020 4.992 0.299h512c21.803-0.003 39.784-16.359 42.348-37.47l0.020-0.205 0.299-4.992v-85.333c21.803 0.003 39.784 16.359 42.348 37.47l0.020 0.205 0.299 4.992v256c-0.003 21.803-16.359 39.784-37.47 42.348l-0.205 0.020zM725.333 298.667h-426.667v-42.667h426.667zM725.333 554.667c23.564 0 42.667-19.103 42.667-42.667s-19.103-42.667-42.667-42.667v0c-23.564 0-42.667 19.103-42.667 42.667s19.103 42.667 42.667 42.667v0z" />
<glyph unicode="&#xe91c;" glyph-name="air_condition_open_fill" d="M426.667 256c23.564 0 42.667-19.103 42.667-42.667v0-50.005c-0.020-35.327-14.348-67.305-37.504-90.453v0l-17.664-17.707c-7.665-7.41-18.12-11.977-29.641-11.977-23.564 0-42.667 19.103-42.667 42.667 0 11.521 4.567 21.976 11.989 29.653l17.652 17.652c7.722 7.719 12.499 18.384 12.501 30.165v50.006c0 23.564 19.103 42.667 42.667 42.667v0zM597.333 256c21.803-0.003 39.784-16.359 42.348-37.47l0.020-0.205 0.299-4.992v-50.005c0-0.001 0-0.002 0-0.004 0-9.802 3.306-18.833 8.863-26.037l-0.074 0.099 3.712-4.224 17.664-17.664c7.691-7.716 12.446-18.362 12.446-30.119 0-23.564-19.103-42.667-42.667-42.667-9.874 0-18.964 3.354-26.194 8.985l0.095-0.072-4.011 3.541-17.664 17.664c-21.211 21.213-35.011 49.836-37.184 81.653l-0.022 0.395-0.299 8.448v50.005c0 23.564 19.103 42.667 42.667 42.667v0zM256 256c21.803-0.003 39.784-16.359 42.348-37.47l0.020-0.205 0.299-4.992v-26.155c-0.014-35.062-21.173-65.18-51.416-78.294l-0.552-0.213-6.4-2.432-56.149-18.731c-3.986-1.359-8.578-2.143-13.353-2.143-23.564 0-42.667 19.103-42.667 42.667 0 16.945 9.878 31.584 24.191 38.47l0.256 0.111 4.608 1.877 56.149 18.688v26.155c0 23.564 19.103 42.667 42.667 42.667v0zM768 256c21.803-0.003 39.784-16.359 42.348-37.47l0.020-0.205 0.299-4.992v-26.155l56.149-18.688c17.15-5.792 29.278-21.736 29.278-40.512 0-23.564-19.103-42.667-42.667-42.667-3.116 0-6.154 0.334-9.079 0.968l0.281-0.051-4.779 1.28-56.149 18.773c-32.037 10.892-55.22 39.438-58.091 73.759l-0.021 0.311-0.256 6.827v26.155c0 23.564 19.103 42.667 42.667 42.667v0zM768 810.667c0.002 0 0.005 0 0.007 0 68.051 0 123.698-53.104 127.762-120.133l0.017-0.358 0.213-7.509v-256c0-0.002 0-0.005 0-0.007 0-68.051-53.104-123.698-120.133-127.762l-0.358-0.017-7.509-0.213h-512c-0.002 0-0.005 0-0.007 0-68.051 0-123.698 53.104-127.762 120.133l-0.017 0.358-0.213 7.509v256c0 0.002 0 0.005 0 0.007 0 68.051 53.104 123.698 120.133 127.762l0.358 0.017 7.509 0.213zM768 469.334h-512c-23.564 0-42.667-19.103-42.667-42.667v0-42.667h597.333v42.667c0 23.564-19.103 42.667-42.667 42.667v0zM725.333 682.667c-23.564 0-42.667-19.103-42.667-42.667s19.103-42.667 42.667-42.667v0c23.564 0 42.667 19.103 42.667 42.667s-19.103 42.667-42.667 42.667v0z" />
<glyph unicode="&#xe91d;" glyph-name="air_condition_open_line" d="M768 768c70.692 0 128-57.308 128-128v0-213.333c0-70.692-57.308-128-128-128v0h-512c-70.692 0-128 57.308-128 128v0 213.333c0 70.692 57.308 128 128 128v0zM768 682.667h-512c-21.803-0.003-39.784-16.359-42.348-37.47l-0.020-0.205-0.299-4.992v-213.333c0.003-21.803 16.359-39.784 37.47-42.348l0.205-0.020 4.992-0.299v85.333c0.003 21.803 16.359 39.784 37.47 42.348l0.205 0.020 4.992 0.299h426.667c21.803-0.003 39.784-16.359 42.348-37.47l0.020-0.205 0.299-4.992v-85.333c21.803 0.003 39.784 16.359 42.348 37.47l0.020 0.205 0.299 4.992v213.333c-0.003 21.803-16.359 39.784-37.47 42.348l-0.205 0.020zM682.667 426.667h-341.333v-42.667h341.333zM682.667 640c23.564 0 42.667-19.103 42.667-42.667s-19.103-42.667-42.667-42.667v0c-23.564 0-42.667 19.103-42.667 42.667s19.103 42.667 42.667 42.667v0zM426.667 256c23.564 0 42.667-19.103 42.667-42.667v0-50.005c-0.020-35.327-14.348-67.305-37.504-90.453v0l-17.664-17.707c-7.665-7.41-18.12-11.977-29.641-11.977-23.564 0-42.667 19.103-42.667 42.667 0 11.521 4.567 21.976 11.989 29.653l17.652 17.652c7.722 7.719 12.499 18.384 12.501 30.165v50.006c0 23.564 19.103 42.667 42.667 42.667v0zM554.667 213.334c0 23.564 19.103 42.667 42.667 42.667s42.667-19.103 42.667-42.667v0-50.005c0.003-11.781 4.78-22.446 12.501-30.165l17.664-17.664c8.036-7.769 13.026-18.647 13.026-30.69 0-23.564-19.103-42.667-42.667-42.667-12.043 0-22.92 4.989-30.678 13.014l-17.676 17.676c-23.165 23.158-37.496 55.153-37.504 90.494v0.002zM256 256c23.564 0 42.667-19.103 42.667-42.667v0-26.155c-0.010-37.473-24.173-69.3-57.767-80.761l-0.601-0.178-56.149-18.731c-4.023-1.386-8.66-2.186-13.483-2.186-23.57 0-42.676 19.107-42.676 42.676 0 18.746 12.087 34.67 28.893 40.402l0.3 0.089 56.149 18.688v26.155c0 23.564 19.103 42.667 42.667 42.667v0zM725.333 213.334c0 23.564 19.103 42.667 42.667 42.667s42.667-19.103 42.667-42.667v0-26.155l56.149-18.688c17.107-5.821 29.194-21.744 29.194-40.491 0-23.57-19.107-42.676-42.676-42.676-4.823 0-9.459 0.8-13.783 2.275l0.3-0.089-56.149 18.773c-34.168 11.629-58.319 43.414-58.368 80.847v0.006z" />
<glyph unicode="&#xe91e;" glyph-name="airbnb_fill" d="M512 871.894c-49.024 0-92.672-22.016-128.768-55.296-65.707-60.672-123.093-164.352-168.875-264.619-46.933-102.741-85.803-211.499-111.787-290.133-31.957-96.683 9.984-199.211 94.763-250.112l-0.963 0.546c33.206-20.274 72.231-31.956 113.985-31.956 65.555 0 124.384 28.797 164.738 74.674 11.733 13.483 24.235 27.733 36.907 42.368 12.672-14.635 25.131-28.885 36.907-42.368l0.209-0.243c40.143-45.608 98.955-74.386 164.489-74.386 41.752 0 80.776 11.681 113.019 31.408 84.821 50.816 126.763 153.387 94.805 250.069-25.984 78.635-64.853 187.392-111.787 290.091-45.781 100.309-103.168 203.989-168.875 264.661-36.096 33.323-79.701 55.296-128.768 55.296zM596.181 195.627c22.059 26.283 40.747 49.152 52.352 64.64 44.203 58.923 55.936 134.485 33.493 198.315-23.595 67.157-84.352 117.419-170.027 117.419s-146.432-50.261-170.027-117.419c-22.443-63.829-10.667-139.392 33.493-198.315 11.605-15.488 30.293-38.4 52.352-64.64-16.555-19.115-33.237-38.229-49.067-56.32-16.77-19.016-41.189-30.949-68.396-30.949-17.424 0-33.705 4.894-47.542 13.383l0.397-0.226c-35.968 21.589-51.371 63.147-39.083 100.181 25.259 76.459 62.464 180.309 106.667 277.077 45.269 99.2 93.952 181.931 139.307 223.787 28.544 26.368 55.253 26.368 83.797 0 45.355-41.856 94.037-124.587 139.307-223.787 44.203-96.768 81.408-200.619 106.667-277.077 12.288-37.077-3.115-78.592-39.083-100.181-13.441-8.262-29.722-13.157-47.146-13.157-27.206 0-51.625 11.932-68.31 30.849l-0.086 0.099c-15.829 18.091-32.512 37.205-49.067 56.32zM512 294.486c-9.951 11.758-21.131 25.617-32.011 39.72l-2.122 2.862c-19.797 26.453-22.741 57.515-15.147 79.061 6.4 18.133 20.267 31.872 49.28 31.872s42.88-13.739 49.28-31.872c7.595-21.547 4.693-52.651-15.147-79.061-7.808-10.411-19.669-25.173-34.133-42.581z" />
<glyph unicode="&#xe91f;" glyph-name="airbnb_line" d="M511.957 850.56c-42.325 0-81.024-18.901-114.304-49.621-62.293-57.557-118.187-157.739-163.883-257.835-46.464-101.76-85.077-209.664-110.933-287.957-28.672-86.741 8.832-179.115 85.504-225.109l-0.869 0.493c29.973-18.3 65.199-28.845 102.887-28.845 59.146 0 112.227 25.971 148.649 67.35 16.811 19.2 34.901 39.979 52.992 60.885l18.491-21.737c17.258-19.854 34.559-39.67 34.459-39.149l0.189-0.219c36.233-41.17 89.32-67.147 148.474-67.147 37.7 0 72.935 10.551 102.046 28.369 76.672 45.995 114.176 138.368 85.504 225.109-25.856 78.293-64.469 186.197-110.933 287.957-45.696 100.096-101.675 200.277-163.968 257.835-33.237 30.72-71.936 49.621-114.261 49.621zM568.149 195.456c26.88 31.787 49.92 59.776 63.317 77.653 40.107 53.461 50.389 121.6 30.464 178.347-20.736 59.051-73.685 103.253-149.931 103.253s-129.195-44.203-149.931-103.253c-19.925-56.747-9.685-124.885 30.464-178.347 13.355-17.877 36.395-45.867 63.317-77.653-20.48-23.723-41.472-47.787-61.013-70.229-20.7-23.488-50.852-38.228-84.445-38.228-21.488 0-41.567 6.030-58.637 16.491l0.491-0.28c-44.117 26.453-63.915 78.165-48.384 125.184 25.387 76.8 62.891 181.504 107.52 279.253 45.355 99.413 95.488 185.6 144.213 230.613 22.016 20.309 41.003 26.965 56.405 26.965 15.36 0 34.347-6.656 56.405-26.965 48.725-45.013 98.816-131.243 144.213-230.613 44.629-97.749 82.133-202.453 107.52-279.253 15.531-47.019-4.267-98.688-48.384-125.184-16.573-10.171-36.643-16.195-58.119-16.195-33.586 0-63.731 14.733-84.324 38.088l-0.106 0.123c-19.627 22.4-40.576 46.507-61.056 70.229zM512 261.248c-15.353 17.852-32.117 38.364-48.394 59.274l-2.806 3.745c-23.893 31.829-28.288 70.357-18.219 98.901 9.259 26.368 30.976 46.165 69.419 46.165 38.4 0 60.16-19.797 69.419-46.165 10.027-28.587 5.632-67.072-18.219-98.901-19.031-24.608-35.795-45.121-53.037-65.211l1.837 2.192z" />
<glyph unicode="&#xe920;" glyph-name="airdrop_fill" d="M512 746.667c-0.044 0-0.097 0-0.149 0-176.731 0-320-143.269-320-320 0-124.626 71.243-232.613 175.225-285.454l1.82-0.839c21.126-10.752 35.345-32.334 35.345-57.237 0-35.356-28.661-64.017-64.017-64.017-10.453 0-20.32 2.505-29.035 6.948l0.363-0.168c-147.951 75.209-247.552 226.301-247.552 400.655 0 0.040 0 0.079 0 0.119v-0.006c0 247.424 200.576 448 448 448s448-200.576 448-448c0-0.034 0-0.073 0-0.113 0-174.354-99.601-325.446-245.009-399.48l-2.543-1.175c-8.352-4.275-18.219-6.78-28.672-6.78-35.356 0-64.017 28.661-64.017 64.017 0 24.903 14.22 46.485 34.982 57.069l0.363 0.168c105.802 53.681 177.045 161.667 177.045 286.293 0 176.731-143.269 320-320 320-0.052 0-0.105 0-0.157 0h0.008zM512 576c-0.035 0-0.077 0-0.118 0-82.475 0-149.333-66.859-149.333-149.333 0-58.181 33.273-108.591 81.828-133.24l0.85-0.392c20.529-10.935 34.266-32.2 34.266-56.673 0-35.346-28.654-64-64-64-10.020 0-19.503 2.303-27.947 6.408l0.38-0.167c-91.584 46.56-153.237 140.090-153.237 248.020 0 153.167 124.166 277.333 277.333 277.333s277.333-124.166 277.333-277.333c0-107.93-61.653-201.46-151.663-247.293l-1.574-0.728c-8.465-4.416-18.488-7.006-29.115-7.006-35.346 0-64 28.654-64 64 0 25.067 14.412 46.769 35.401 57.271l0.37 0.168c49.406 25.041 82.678 75.451 82.678 133.632 0 82.475-66.859 149.333-149.333 149.333-0.042 0-0.083 0-0.125 0h0.006zM405.333 426.667c0 58.91 47.756 106.667 106.667 106.667s106.667-47.756 106.667-106.667v0c0-58.91-47.756-106.667-106.667-106.667s-106.667 47.756-106.667 106.667v0z" />
<glyph unicode="&#xe921;" glyph-name="airdrop_line" d="M512 768c-0.044 0-0.096 0-0.148 0-188.513 0-341.333-152.82-341.333-341.333 0-132.923 75.98-248.101 186.879-304.47l1.941-0.895c14.087-7.169 23.57-21.56 23.57-38.165 0-23.574-19.11-42.684-42.684-42.684-6.968 0-13.547 1.67-19.357 4.631l0.242-0.112c-140.913 71.626-235.776 215.526-235.776 381.582 0 0.040 0 0.080 0 0.12v-0.007c0 235.648 191.019 426.667 426.667 426.667s426.667-191.019 426.667-426.667c0-0.034 0-0.074 0-0.114 0-166.057-94.864-309.957-233.355-380.464l-2.421-1.119c-5.568-2.849-12.146-4.519-19.115-4.519-23.574 0-42.684 19.11-42.684 42.684 0 16.606 9.482 30.997 23.328 38.053l0.242 0.112c112.84 57.265 188.82 172.442 188.82 305.365 0 188.513-152.82 341.333-341.333 341.333-0.052 0-0.104 0-0.156 0h0.008zM512 597.334c-0.035 0-0.076 0-0.117 0-94.257 0-170.667-76.41-170.667-170.667 0-66.479 38.009-124.080 93.482-152.257l0.971-0.447c13.614-7.311 22.714-21.45 22.714-37.714 0-23.564-19.103-42.667-42.667-42.667-6.624 0-12.896 1.509-18.489 4.203l0.256-0.111c-84.545 42.976-141.461 129.315-141.461 228.947 0 141.385 114.615 256 256 256s256-114.615 256-256c0-99.632-56.916-185.971-140.008-228.276l-1.453-0.671c-5.491-2.759-11.967-4.375-18.819-4.375-23.564 0-42.667 19.103-42.667 42.667 0 16.479 9.342 30.776 23.020 37.884l0.237 0.112c56.443 28.624 94.453 86.225 94.453 152.704 0 94.257-76.41 170.667-170.667 170.667-0.041 0-0.082 0-0.123 0h0.006zM426.667 426.667c0 47.128 38.205 85.333 85.333 85.333s85.333-38.205 85.333-85.333v0c0-47.128-38.205-85.333-85.333-85.333s-85.333 38.205-85.333 85.333v0z" />
<glyph unicode="&#xe922;" glyph-name="airplane_fill" d="M840.96 817.622c31.275-6.272 55.723-30.72 61.995-61.995 1.871-8.941 2.942-19.215 2.942-29.739 0-37.48-13.586-71.787-36.103-98.264l0.179 0.216-117.376-138.752 82.944-304.256c1.195-4.211 1.882-9.046 1.882-14.043 0-14.727-5.969-28.061-15.621-37.712l-55.552-55.552c-7.798-7.794-18.568-12.615-30.465-12.615-16.119 0-30.171 8.85-37.562 21.957l-0.112 0.216-127.701 229.845-139.008-96.213v-33.579c0-14.123-5.632-27.733-15.616-37.717l-71.808-71.765c-7.8-7.809-18.581-12.64-30.49-12.64-18.935 0-35.018 12.212-40.801 29.19l-0.090 0.303-23.211 69.589-69.589 23.211c-17.281 5.873-29.494 21.956-29.494 40.891 0 11.909 4.831 22.69 12.64 30.49v0l71.808 71.808c9.651 9.648 22.982 15.616 37.707 15.616 0.004 0 0.007 0 0.011 0h33.578l96.213 139.008-229.845 127.701c-13.322 7.503-22.172 21.555-22.172 37.674 0 11.896 4.821 22.667 12.615 30.465l55.552 55.552c9.651 9.651 22.985 15.621 37.712 15.621 4.996 0 9.832-0.687 14.418-1.972l-0.375 0.090 304.213-82.944 138.795 117.376c26.261 22.337 60.568 35.924 98.048 35.924 10.524 0 20.798-1.071 30.719-3.111l-0.98 0.168z" />
<glyph unicode="&#xe923;" glyph-name="airplane_line" d="M840.96 817.622c31.275-6.272 55.723-30.72 61.995-61.995 1.871-8.941 2.942-19.215 2.942-29.739 0-37.48-13.586-71.787-36.103-98.264l0.179 0.216-117.376-138.752 82.944-304.256c1.195-4.211 1.882-9.046 1.882-14.043 0-14.727-5.969-28.061-15.621-37.712l-55.552-55.552c-7.798-7.794-18.568-12.615-30.465-12.615-16.119 0-30.171 8.85-37.562 21.957l-0.112 0.216-125.525 225.963-121.941-101.589 8.96-44.928c0.667-3.164 1.049-6.799 1.049-10.524 0-14.716-5.96-28.040-15.598-37.69v0l-70.997-70.955c-7.796-7.785-18.56-12.599-30.449-12.599-16.774 0-31.31 9.584-38.43 23.576l-0.113 0.245-53.76 107.392-107.349 53.76c-14.236 7.233-23.82 21.769-23.82 38.543 0 11.889 4.814 22.653 12.599 30.449l70.996 70.996c9.648 9.633 22.97 15.591 37.682 15.591 3.712 0 7.335-0.379 10.833-1.101l-0.345 0.059 44.928-8.96 101.589 121.899-225.963 125.568c-13.322 7.503-22.172 21.555-22.172 37.674 0 11.896 4.821 22.667 12.615 30.465l55.552 55.552c9.651 9.651 22.985 15.621 37.712 15.621 4.996 0 9.832-0.687 14.418-1.972l-0.375 0.090 304.213-82.944 138.795 117.376c26.261 22.337 60.568 35.924 98.048 35.924 10.524 0 20.798-1.071 30.719-3.111l-0.98 0.168zM819.968 734.635c-2.641 0.372-5.693 0.585-8.794 0.585-16.386 0-31.387-5.933-42.971-15.768l0.095 0.079-155.733-131.797c-7.454-6.332-17.187-10.183-27.819-10.183-4.038 0-7.946 0.555-11.652 1.594l0.303-0.073-307.755 83.968-2.859-2.816 221.653-123.136c13.319-7.504 22.166-21.554 22.166-37.671 0-10.536-3.781-20.189-10.061-27.676l0.055 0.067-150.357-180.395c-7.96-9.509-19.834-15.513-33.111-15.513-2.989 0-5.907 0.304-8.724 0.884l0.278-0.048-52.779 10.539-17.408-17.408 66.432-33.237c9.125-4.63 16.362-11.867 20.869-20.725l0.123-0.267 33.28-66.432 17.365 17.408-10.539 52.779c-0.531 2.539-0.836 5.457-0.836 8.446 0 13.277 6.004 25.151 15.446 33.056l0.067 0.055 180.437 150.357c7.42 6.225 17.073 10.006 27.609 10.006 16.117 0 30.167-8.848 37.559-21.951l0.112-0.215 123.093-221.653 2.816 2.859-83.925 307.755c-0.959 3.392-1.511 7.287-1.511 11.311 0 10.65 3.863 20.398 10.265 27.918l-0.051-0.061 131.755 155.733c12.16 14.379 17.579 33.152 15.104 51.669z" />
<glyph unicode="&#xe924;" glyph-name="airplay_fill" d="M491.264 217.472c4.701 6.515 12.272 10.706 20.821 10.706s16.12-4.191 20.77-10.631l0.052-0.075 118.016-165.035c2.986-4.134 4.776-9.303 4.776-14.891 0-14.138-11.46-25.599-25.597-25.6h-235.989c-14.137 0.001-25.598 11.462-25.598 25.6 0 5.588 1.79 10.757 4.828 14.966l-0.052-0.075zM853.333 768c47.128 0 85.333-38.205 85.333-85.333v0-469.333c0-47.128-38.205-85.333-85.333-85.333v0h-158.293l-134.443 188.032c-10.968 15.213-28.64 25-48.597 25s-37.629-9.787-48.476-24.824l-0.121-0.176-134.4-188.032h-158.336c-47.128 0-85.333 38.205-85.333 85.333v0 469.333c0 47.128 38.205 85.333 85.333 85.333v0z" />
<glyph unicode="&#xe925;" glyph-name="airplay_line" d="M476.928 257.835c7.911 10.993 20.67 18.067 35.082 18.067 12.475 0 23.712-5.301 31.582-13.773l0.025-0.027 3.413-4.267 127.189-177.835c5.035-6.962 8.054-15.671 8.054-25.085 0-22.158-16.723-40.41-38.236-42.823l-0.196-0.018-4.693-0.256h-254.293c-0.008 0-0.017 0-0.026 0-23.8 0-43.093 19.294-43.093 43.093 0 7.761 2.051 15.042 5.642 21.332l-0.111-0.212 2.517 3.968zM512 160.128l-45.056-62.976h90.112l-45.056 63.019zM853.333 768c0.008 0 0.018 0 0.027 0 44.876 0 81.661-34.641 85.075-78.641l0.018-0.293 0.213-6.4v-469.333c0-0.008 0-0.018 0-0.027 0-44.876-34.641-81.661-78.641-85.075l-0.293-0.018-6.4-0.213h-170.667v85.333h170.667v469.333h-682.667v-469.333h170.667v-85.333h-170.667c-0.008 0-0.018 0-0.027 0-44.876 0-81.661 34.641-85.075 78.641l-0.018 0.293-0.213 6.4v469.333c0 0.008 0 0.018 0 0.027 0 44.876 34.641 81.661 78.641 85.075l0.293 0.018 6.4 0.213z" />
<glyph unicode="&#xe926;" glyph-name="airpods_2_fill" d="M298.667 768c-117.821 0-213.333-95.513-213.333-213.333v0h853.333c0 117.821-95.513 213.333-213.333 213.333v0zM938.667 469.334h-213.333c0-47.128-38.205-85.333-85.333-85.333v0h-256c-47.128 0-85.333 38.205-85.333 85.333v0h-213.333v-170.667c0-117.821 95.513-213.333 213.333-213.333v0h426.667c117.821 0 213.333 95.513 213.333 213.333v0z" />
<glyph unicode="&#xe927;" glyph-name="airpods_2_line" d="M85.333 554.667c0 117.821 95.513 213.333 213.333 213.333v0h426.667c117.821 0 213.333-95.513 213.333-213.333v0-256c0-117.821-95.513-213.333-213.333-213.333v0h-426.667c-117.821 0-213.333 95.513-213.333 213.333v0zM170.667 469.334v-170.667c0-70.692 57.308-128 128-128v0h426.667c70.692 0 128 57.308 128 128v0 170.667h-128c0-47.128-38.205-85.333-85.333-85.333v0h-256c-47.128 0-85.333 38.205-85.333 85.333v0zM853.333 554.667v0c0 70.692-57.308 128-128 128h-426.667c-70.692 0-128-57.308-128-128z" />
<glyph unicode="&#xe928;" glyph-name="airpods_fill" d="M277.333 768c-105.895-0.191-191.665-86.079-191.665-192 0-106.039 85.961-192 192-192 7.398 0 14.698 0.418 21.878 1.233l-0.879-0.081v-214.485c0-47.128 38.205-85.333 85.333-85.333s85.333 38.205 85.333 85.333v0 405.333c0 106.039-85.961 192-192 192v0zM746.667 768c105.895-0.191 191.665-86.079 191.665-192 0-106.039-85.961-192-192-192-7.398 0-14.698 0.418-21.878 1.233l0.879-0.081v-214.485c0-47.128-38.205-85.333-85.333-85.333s-85.333 38.205-85.333 85.333v0 405.333c0 106.039 85.961 192 192 192v0z" />
<glyph unicode="&#xe929;" glyph-name="airpods_line" d="M277.333 768c-0.099 0-0.217 0-0.335 0-106.039 0-192-85.961-192-192 0-98.641 74.386-179.908 170.122-190.767l0.879-0.081v-193.152c0-58.91 47.756-106.667 106.667-106.667s106.667 47.756 106.667 106.667v0 384c0 106.039-85.961 192-192 192v0zM170.667 576c0 58.91 47.756 106.667 106.667 106.667s106.667-47.756 106.667-106.667v0-384c0-11.782-9.551-21.333-21.333-21.333s-21.333 9.551-21.333 21.333v0 236.16c0 0.002 0 0.004 0 0.006 0 23.564-19.103 42.667-42.667 42.667-2.137 0-4.238-0.157-6.291-0.461l0.233 0.028c-4.59-0.7-9.886-1.099-15.275-1.099-58.91 0-106.667 47.756-106.667 106.667 0 0.011 0 0.023 0 0.034v-0.002zM746.667 768c-106.039 0-192-85.961-192-192v0-384c0-58.91 47.756-106.667 106.667-106.667s106.667 47.756 106.667 106.667v0 193.152c96.616 10.94 171.002 92.207 171.002 190.848 0 106.039-85.961 192-192 192-0.118 0-0.236 0-0.353 0h0.018zM640 576c0.019 58.896 47.768 106.634 106.667 106.634 58.91 0 106.667-47.756 106.667-106.667s-47.756-106.667-106.667-106.667c-5.389 0-10.685 0.4-15.859 1.171l0.584-0.072c-1.821 0.275-3.921 0.432-6.059 0.432-23.564 0-42.667-19.103-42.667-42.667 0-0.002 0-0.004 0-0.006v0-236.16c0-11.782-9.551-21.333-21.333-21.333s-21.333 9.551-21.333 21.333v0z" />
<glyph unicode="&#xe92a;" glyph-name="alarm_1_fill" d="M746.667 810.667c0.004 0 0.009 0 0.014 0 82.475 0 149.333-66.859 149.333-149.333 0-40.148-15.843-76.596-41.619-103.432l0.048 0.050c26.195-50.426 41.558-110.1 41.558-173.363 0-0.207 0-0.414 0-0.621v0.032c0-0.124 0-0.27 0-0.416 0-112.127-48.181-213-124.968-283.046l-0.301-0.271 27.435-27.435c7.41-7.665 11.977-18.12 11.977-29.641 0-23.564-19.103-42.667-42.667-42.667-11.521 0-21.976 4.567-29.653 11.989l-37.023 37.023c-54.124-31.157-119.018-49.536-188.205-49.536-0.209 0-0.418 0-0.628 0.001h0.032c-0.177 0-0.386 0-0.595 0-69.187 0-134.081 18.379-190.067 50.522l1.862-0.985-37.035-37.035c-7.665-7.41-18.12-11.977-29.641-11.977-23.564 0-42.667 19.103-42.667 42.667 0 11.521 4.567 21.976 11.989 29.653l27.423 27.423c-77.089 70.317-125.27 171.191-125.27 283.317 0 0.146 0 0.292 0 0.439v-0.022c0 0.181 0 0.395 0 0.61 0 63.256 15.363 122.923 42.561 175.474l-1.003-2.132c-25.745 26.789-41.6 63.249-41.6 103.412 0 82.475 66.859 149.333 149.333 149.333 48.888 0 92.29-23.492 119.531-59.804l0.277-0.386c34.249 11.096 73.655 17.493 114.556 17.493 0.122 0 0.243 0 0.365 0h-0.019c40.021 0 78.592-6.101 114.901-17.493 27.469 36.677 70.821 60.16 119.657 60.16 0.038 0 0.076 0 0.114 0h-0.006zM512 597.334c-21.803-0.003-39.784-16.359-42.348-37.47l-0.020-0.205-0.299-4.992v-170.069c-0.003-0.189-0.005-0.411-0.005-0.634 0-9.697 3.241-18.636 8.699-25.795l-0.076 0.104 3.84-4.437 89.856-89.813c7.735-7.807 18.459-12.64 30.313-12.64 23.564 0 42.667 19.103 42.667 42.667 0 9.961-3.413 19.124-9.134 26.385l0.069-0.091-3.584 4.011-77.312 77.312v153.003c0 23.564-19.103 42.667-42.667 42.667v0z" />
<glyph unicode="&#xe92b;" glyph-name="alarm_1_line" d="M746.667 810.667c0.004 0 0.009 0 0.014 0 82.475 0 149.333-66.859 149.333-149.333 0-40.148-15.843-76.596-41.619-103.432l0.048 0.050c26.195-50.426 41.558-110.1 41.558-173.363 0-0.207 0-0.414 0-0.621v0.032c0-0.132 0-0.288 0-0.444 0-107.53-44.331-204.706-115.715-274.249l-0.083-0.081-9.472-8.96 27.435-27.435c7.691-7.716 12.446-18.362 12.446-30.119 0-23.564-19.103-42.667-42.667-42.667-9.874 0-18.964 3.354-26.194 8.985l0.095-0.072-4.011 3.541-37.035 37.035c-54.124-31.157-119.018-49.536-188.205-49.536-0.209 0-0.418 0-0.628 0.001h0.032c-0.175 0-0.383 0-0.591 0-63.986 0-124.302 15.716-177.297 43.5l2.101-1.003-13.013 7.040-37.035-37.035c-7.716-7.691-18.362-12.446-30.119-12.446-23.564 0-42.667 19.103-42.667 42.667 0 9.874 3.354 18.964 8.985 26.194l-0.072-0.095 3.541 4.011 27.435 27.435c-77.089 70.317-125.27 171.191-125.27 283.317 0 0.146 0 0.292 0 0.439v-0.022c0 0.181 0 0.395 0 0.61 0 63.256 15.363 122.923 42.561 175.474l-1.003-2.132c-25.745 26.789-41.6 63.249-41.6 103.412 0 82.475 66.859 149.333 149.333 149.333 48.888 0 92.29-23.492 119.531-59.804l0.277-0.386c34.249 11.096 73.655 17.493 114.556 17.493 0.122 0 0.243 0 0.365 0h-0.019c40.021 0 78.592-6.101 114.901-17.493 27.469 36.677 70.821 60.16 119.657 60.16 0.038 0 0.076 0 0.114 0h-0.006zM512 682.667c-164.949 0-298.667-133.718-298.667-298.667s133.718-298.667 298.667-298.667v0c164.949 0 298.667 133.718 298.667 298.667s-133.718 298.667-298.667 298.667v0zM512 597.334c23.564 0 42.667-19.103 42.667-42.667v0-153.003l77.355-77.312c7.725-7.725 12.504-18.398 12.504-30.187 0-23.577-19.113-42.69-42.69-42.69-11.789 0-22.461 4.778-30.187 12.504l-89.813 89.856c-7.726 7.703-12.505 18.356-12.505 30.126 0 0.209 0.002 0.418 0.005 0.626v-0.032 170.112c0 23.564 19.103 42.667 42.667 42.667v0zM277.333 725.334c-0.013 0-0.028 0-0.043 0-35.346 0-64-28.654-64-64 0-10.252 2.411-19.941 6.696-28.531l-0.168 0.371c26.891 31.373 58.136 58 93.017 79.249l1.703 0.964c-10.308 7.469-23.207 11.947-37.153 11.947-0.018 0-0.037 0-0.055 0h0.003zM746.667 725.334c-13.867 0-26.709-4.395-37.205-11.947 36.584-22.212 67.829-48.84 94.285-79.694l0.435-0.519c4.118 8.219 6.528 17.908 6.528 28.16 0 35.346-28.654 64-64 64-0.015 0-0.030 0-0.045 0h0.002z" />
<glyph unicode="&#xe92c;" glyph-name="alarm_2_fill" d="M512 768c212.077 0 384-171.923 384-384s-171.923-384-384-384v0c-212.077 0-384 171.923-384 384s171.923 384 384 384v0zM512 597.334c-21.803-0.003-39.784-16.359-42.348-37.47l-0.020-0.205-0.299-4.992v-170.069c-0.003-0.189-0.005-0.411-0.005-0.634 0-9.697 3.241-18.636 8.699-25.795l-0.076 0.104 3.84-4.437 89.856-89.813c7.735-7.807 18.459-12.64 30.313-12.64 23.564 0 42.667 19.103 42.667 42.667 0 9.961-3.413 19.124-9.134 26.385l0.069-0.091-3.584 4.011-77.312 77.312v153.003c0 23.564-19.103 42.667-42.667 42.667v0zM768 827.478c54.463-31.87 100.656-71.321 138.911-117.578l0.694-0.864c5.591-7.147 8.966-16.263 8.966-26.167 0-23.564-19.103-42.667-42.667-42.667-12.816 0-24.313 5.651-32.134 14.597l-0.043 0.050c-32.486 39.297-71.013 72.196-114.421 97.679l-2.017 1.094c-12.821 7.52-21.293 21.235-21.293 36.928 0 23.565 19.103 42.669 42.669 42.669 7.872 0 15.246-2.132 21.577-5.849l-0.201 0.109zM314.283 811.904c3.594-6.12 5.716-13.478 5.716-21.333 0-15.709-8.489-29.435-21.131-36.841l-0.201-0.109c-45.426-26.589-83.954-59.503-115.858-98.094l-0.58-0.722c-7.88-10.081-20.041-16.5-33.701-16.5-23.564 0-42.667 19.103-42.667 42.667 0 10.748 3.974 20.568 10.533 28.070l-0.043-0.050c38.935 47.136 85.115 86.601 137.148 117.174l2.414 1.312c6.132 3.612 13.508 5.745 21.383 5.745 15.703 0 29.425-8.484 36.833-21.118l0.109-0.201z" />
<glyph unicode="&#xe92d;" glyph-name="alarm_2_line" d="M512 768c212.077 0 384-171.923 384-384s-171.923-384-384-384v0c-212.077 0-384 171.923-384 384s171.923 384 384 384v0zM512 682.667c-164.949 0-298.667-133.718-298.667-298.667s133.718-298.667 298.667-298.667v0c164.949 0 298.667 133.718 298.667 298.667s-133.718 298.667-298.667 298.667v0zM512 597.334c21.803-0.003 39.784-16.359 42.348-37.47l0.020-0.205 0.299-4.992v-153.003l77.355-77.312c7.807-7.735 12.64-18.459 12.64-30.313 0-23.564-19.103-42.667-42.667-42.667-9.961 0-19.124 3.413-26.385 9.134l0.091-0.069-4.053 3.584-89.813 89.813c-6.578 6.56-11.017 15.262-12.183 24.971l-0.020 0.203-0.299 5.547v170.112c0 23.564 19.103 42.667 42.667 42.667v0zM709.717 811.947c7.521 12.817 21.233 21.287 36.923 21.287 7.883 0 15.266-2.138 21.602-5.865l-0.2 0.109c54.446-31.874 100.625-71.324 138.868-117.577l0.695-0.865c5.591-7.147 8.966-16.263 8.966-26.167 0-23.564-19.103-42.667-42.667-42.667-12.816 0-24.313 5.651-32.134 14.597l-0.043 0.050c-32.486 39.297-71.013 72.196-114.421 97.679l-2.017 1.094c-12.825 7.519-21.3 21.235-21.3 36.931 0 7.862 2.126 15.227 5.836 21.552l-0.109-0.201zM256 827.435c6.13 3.609 13.504 5.741 21.376 5.741 23.565 0 42.669-19.103 42.669-42.669 0-15.693-8.472-29.408-21.092-36.819l-0.201-0.109c-45.426-26.589-83.954-59.503-115.858-98.094l-0.58-0.722c-7.88-10.081-20.041-16.5-33.701-16.5-23.564 0-42.667 19.103-42.667 42.667 0 10.748 3.974 20.568 10.533 28.070l-0.043-0.050c38.935 47.136 85.115 86.601 137.148 117.174l2.414 1.312z" />
<glyph unicode="&#xe92e;" glyph-name="album_2_fill" d="M845.653 682.667c47.114-0.018 85.301-38.216 85.301-85.333 0-4.958-0.423-9.817-1.234-14.544l0.072 0.506-71.083-426.667c-6.975-40.707-42.001-71.296-84.171-71.296-0.004 0-0.007 0-0.011 0h-525.055c-0.003 0-0.007 0-0.010 0-42.17 0-77.196 30.589-84.099 70.79l-0.072 0.506-71.083 426.667c-0.74 4.22-1.162 9.079-1.162 14.037 0 47.117 38.187 85.315 85.299 85.333h0.002zM768 810.667c23.564 0 42.667-19.103 42.667-42.667s-19.103-42.667-42.667-42.667v0h-512c-23.564 0-42.667 19.103-42.667 42.667s19.103 42.667 42.667 42.667v0z" />
<glyph unicode="&#xe92f;" glyph-name="album_2_line" d="M256 810.667c-23.564 0-42.667-19.103-42.667-42.667s19.103-42.667 42.667-42.667v0h512c23.564 0 42.667 19.103 42.667 42.667s-19.103 42.667-42.667 42.667v0zM178.347 682.667c-47.114-0.018-85.301-38.216-85.301-85.333 0-4.958 0.423-9.817 1.234-14.544l-0.072 0.506 71.083-426.667c6.975-40.707 42.001-71.296 84.171-71.296 0.004 0 0.007 0 0.011 0h525.055c0.003 0 0.007 0 0.010 0 42.17 0 77.196 30.589 84.099 70.79l0.072 0.506 71.083 426.667c0.74 4.22 1.162 9.079 1.162 14.037 0 47.117-38.187 85.315-85.299 85.333h-0.002zM178.347 597.334h667.307l-71.125-426.667h-525.056z" />
<glyph unicode="&#xe930;" glyph-name="album_fill" d="M512 853.334c235.648 0 426.667-191.019 426.667-426.667s-191.019-426.667-426.667-426.667-426.667 191.019-426.667 426.667 191.019 426.667 426.667 426.667zM512 512c-47.128 0-85.333-38.205-85.333-85.333s38.205-85.333 85.333-85.333v0c47.128 0 85.333 38.205 85.333 85.333s-38.205 85.333-85.333 85.333v0zM488.107 661.035c-6.029 16.723-21.76 28.462-40.233 28.462-5.093 0-9.978-0.892-14.507-2.53l0.297 0.094c-68.101-24.611-123.305-71.114-158.382-130.859l-0.764-1.408c-3.614-6.136-5.748-13.517-5.748-21.397 0-23.581 19.116-42.698 42.698-42.698 15.701 0 29.423 8.475 36.84 21.1l0.109 0.201c25.615 43.699 65.053 76.937 112.217 94.076l1.49 0.473c16.723 6.029 28.462 21.76 28.462 40.233 0 5.093-0.892 9.978-2.53 14.507l0.094-0.297z" />
<glyph unicode="&#xe931;" glyph-name="album_line" d="M512 853.334c235.648 0 426.667-191.019 426.667-426.667s-191.019-426.667-426.667-426.667-426.667 191.019-426.667 426.667 191.019 426.667 426.667 426.667zM512 768c-188.513 0-341.333-152.82-341.333-341.333s152.82-341.333 341.333-341.333v0c188.513 0 341.333 152.82 341.333 341.333s-152.82 341.333-341.333 341.333v0zM512 512c47.128 0 85.333-38.205 85.333-85.333s-38.205-85.333-85.333-85.333v0c-47.128 0-85.333 38.205-85.333 85.333s38.205 85.333 85.333 85.333v0zM488.107 661.035c1.543-4.231 2.436-9.116 2.436-14.21 0-18.473-11.74-34.204-28.165-40.139l-0.297-0.094c-48.637-17.621-88.059-50.857-113.117-93.542l-0.547-1.007c-7.518-12.837-21.243-21.322-36.949-21.322-23.57 0-42.676 19.107-42.676 42.676 0 7.863 2.127 15.23 5.836 21.556l-0.109-0.201c35.842 61.153 91.045 107.656 157.062 131.606l2.084 0.661c4.235 1.546 9.125 2.44 14.223 2.44 18.459 0 34.18-11.722 40.125-28.128l0.094-0.297z" />
<glyph unicode="&#xe932;" glyph-name="alert_diamond_fill" d="M572.331 818.902l331.861-331.904c15.437-15.441 24.984-36.771 24.984-60.331s-9.548-44.889-24.985-60.331l-331.861-331.861c-15.441-15.437-36.771-24.984-60.331-24.984s-44.889 9.548-60.331 24.985l-331.861 331.861c-15.437 15.441-24.984 36.771-24.984 60.331s9.548 44.889 24.985 60.331l331.861 331.904c15.441 15.437 36.771 24.984 60.331 24.984s44.889-9.548 60.331-24.985v0zM512.085 298.667c-0.011 0-0.025 0-0.038 0-23.564 0-42.667-19.103-42.667-42.667 0-21.788 16.332-39.762 37.421-42.347l0.206-0.021 5.12-0.299c23.564 0 42.667 19.103 42.667 42.667s-19.103 42.667-42.667 42.667v0zM512 597.334c-0.009 0-0.019 0-0.030 0-33.932 0-61.44-27.508-61.44-61.44 0-0.675 0.011-1.348 0.033-2.018l-0.002 0.098 0.427-5.76 18.688-149.504c2.711-21.189 20.633-37.4 42.34-37.4 19.983 0 36.758 13.738 41.395 32.285l0.062 0.294 0.853 4.821 18.688 149.504c0.303 2.293 0.476 4.945 0.476 7.637 0 33.956-27.527 61.483-61.483 61.483-0.002 0-0.005 0-0.007 0v0z" />
<glyph unicode="&#xe933;" glyph-name="alert_diamond_line" d="M572.331 818.859l331.861-331.861c15.45-15.444 25.006-36.782 25.006-60.352s-9.556-44.908-25.005-60.352l-331.862-331.862c-15.441-15.437-36.771-24.984-60.331-24.984s-44.889 9.548-60.331 24.985l-331.861 331.861c-15.45 15.444-25.006 36.782-25.006 60.352s9.556 44.908 25.005 60.352l331.862 331.862c15.441 15.437 36.771 24.984 60.331 24.984s44.889-9.548 60.331-24.985v0zM512 758.528l-331.861-331.861 331.861-331.947 331.861 331.947zM512.085 298.667c23.544-0.027 42.619-19.119 42.619-42.667 0-21.788-16.332-39.762-37.421-42.347l-0.206-0.021-4.992-0.299c-0.011 0-0.025 0-0.038 0-23.564 0-42.667 19.103-42.667 42.667 0 21.788 16.332 39.762 37.421 42.347l0.206 0.021zM512 597.334c36.992 0 65.621-32.427 61.013-69.12l-18.688-149.504c-2.766-21.133-20.66-37.281-42.325-37.281s-39.559 16.148-42.302 37.065l-0.023 0.216-18.688 149.504c-0.303 2.293-0.476 4.945-0.476 7.637 0 33.956 27.527 61.483 61.483 61.483 0.002 0 0.005 0 0.007 0v0z" />
<glyph unicode="&#xe934;" glyph-name="alert_fill" d="M567.424 804.352l368.384-638.037c5.391-9.179 8.574-20.218 8.574-32 0-35.346-28.653-63.999-63.998-64h-736.768c-35.346 0.001-63.998 28.654-63.998 64 0 11.782 3.184 22.821 8.738 32.302l-0.164-0.302 368.384 638.037c24.619 42.667 86.187 42.667 110.848 0zM512 298.667c-23.564 0-42.667-19.103-42.667-42.667s19.103-42.667 42.667-42.667v0c23.564 0 42.667 19.103 42.667 42.667s-19.103 42.667-42.667 42.667v0zM512 597.334c-21.803-0.003-39.784-16.359-42.348-37.47l-0.020-0.205-0.299-4.992v-170.667c0.027-23.544 19.119-42.619 42.667-42.619 21.788 0 39.762 16.332 42.347 37.421l0.021 0.206 0.299 4.992v170.667c0 23.564-19.103 42.667-42.667 42.667v0z" />
<glyph unicode="&#xe935;" glyph-name="alert_line" d="M567.424 804.352l368.384-638.037c5.391-9.179 8.574-20.218 8.574-32 0-35.346-28.653-63.999-63.998-64h-736.768c-35.346 0.001-63.998 28.654-63.998 64 0 11.782 3.184 22.821 8.738 32.302l-0.164-0.302 368.384 638.037c24.619 42.667 86.187 42.667 110.848 0zM512 729.686l-331.435-574.037h662.869zM512 298.667c23.564 0 42.667-19.103 42.667-42.667s-19.103-42.667-42.667-42.667v0c-23.564 0-42.667 19.103-42.667 42.667s19.103 42.667 42.667 42.667v0zM512 597.334c23.564 0 42.667-19.103 42.667-42.667v0-170.667c0-23.564-19.103-42.667-42.667-42.667s-42.667 19.103-42.667 42.667v0 170.667c0 23.564 19.103 42.667 42.667 42.667v0z" />
<glyph unicode="&#xe936;" glyph-name="alert_octagon_fill" d="M653.397 853.334c23.562-0.005 44.892-9.559 60.33-25.002l199.936-199.936c15.443-15.439 24.997-36.769 25.003-60.33v-282.796c-0.005-23.562-9.559-44.892-25.002-60.33l-199.936-199.936c-15.439-15.443-36.769-24.997-60.33-25.003h-282.796c-23.562 0.005-44.892 9.559-60.33 25.002l-199.936 199.936c-15.443 15.439-24.997 36.769-25.003 60.33v282.796c0.005 23.562 9.559 44.892 25.002 60.33l199.936 199.936c15.439 15.443 36.769 24.997 60.33 25.003h0.001zM512 298.667c-23.564 0-42.667-19.103-42.667-42.667s19.103-42.667 42.667-42.667v0c23.564 0 42.667 19.103 42.667 42.667s-19.103 42.667-42.667 42.667v0zM512 682.667c-21.803-0.003-39.784-16.359-42.348-37.47l-0.020-0.205-0.299-4.992v-256c0.027-23.544 19.119-42.619 42.667-42.619 21.788 0 39.762 16.332 42.347 37.421l0.021 0.206 0.299 4.992v256c0 23.564-19.103 42.667-42.667 42.667v0z" />
<glyph unicode="&#xe937;" glyph-name="alert_octagon_line" d="M653.397 853.334c23.562-0.005 44.892-9.559 60.33-25.002l199.936-199.936c15.443-15.439 24.997-36.769 25.003-60.33v-282.796c-0.005-23.562-9.559-44.892-25.002-60.33l-199.936-199.936c-15.439-15.443-36.769-24.997-60.33-25.003h-282.796c-23.562 0.005-44.892 9.559-60.33 25.002l-199.936 199.936c-15.443 15.439-24.997 36.769-25.003 60.33v282.796c0.005 23.562 9.559 44.892 25.002 60.33l199.936 199.936c15.439 15.443 36.769 24.997 60.33 25.003h0.001zM653.397 768h-282.795l-199.936-199.936v-282.795l199.936-199.936h282.795l199.936 199.936v282.795zM512 298.667c23.564 0 42.667-19.103 42.667-42.667s-19.103-42.667-42.667-42.667v0c-23.564 0-42.667 19.103-42.667 42.667s19.103 42.667 42.667 42.667v0zM512 682.667c23.564 0 42.667-19.103 42.667-42.667v0-256c0-23.564-19.103-42.667-42.667-42.667s-42.667 19.103-42.667 42.667v0 256c0 23.564 19.103 42.667 42.667 42.667v0z" />
<glyph unicode="&#xe938;" glyph-name="align_arrow_down_fill" d="M738.261 301.056c-11.581 11.578-27.578 18.738-45.248 18.738s-33.667-7.161-45.248-18.739l-71.765-71.765v325.376c0 35.346-28.654 64-64 64s-64-28.654-64-64v0-325.376l-71.765 71.765c-11.584 11.589-27.589 18.757-45.269 18.757-35.349 0-64.005-28.656-64.005-64.005 0-17.669 7.16-33.666 18.736-45.248l181.034-181.034c11.581-11.578 27.578-18.738 45.248-18.738s33.667 7.161 45.248 18.739l181.034 181.034c11.578 11.581 18.738 27.578 18.738 45.248s-7.161 33.667-18.739 45.248v0zM213.333 832c-35.346 0-64-28.654-64-64s28.654-64 64-64v0h597.333c35.346 0 64 28.654 64 64s-28.654 64-64 64v0z" />
<glyph unicode="&#xe939;" glyph-name="align_arrow_down_line" d="M723.2 285.995c-7.723 7.731-18.396 12.514-30.187 12.514s-22.464-4.782-30.186-12.513l-108.16-108.203v376.875c0 23.564-19.103 42.667-42.667 42.667s-42.667-19.103-42.667-42.667v0-376.875l-108.203 108.203c-7.722 7.716-18.386 12.489-30.165 12.489-23.569 0-42.675-19.106-42.675-42.675 0-11.79 4.781-22.463 12.51-30.186l181.035-180.992c7.721-7.718 18.386-12.492 30.165-12.492s22.445 4.774 30.165 12.492l181.035 180.992c7.731 7.723 12.514 18.396 12.514 30.187s-4.782 22.464-12.513 30.186v0zM213.333 810.667c-23.564 0-42.667-19.103-42.667-42.667s19.103-42.667 42.667-42.667v0h597.333c23.564 0 42.667 19.103 42.667 42.667s-19.103 42.667-42.667 42.667v0z" />
<glyph unicode="&#xe93a;" glyph-name="align_arrow_left_fill" d="M386.389 200.406c11.578 11.581 18.738 27.578 18.738 45.248s-7.161 33.667-18.739 45.248l-71.722 71.765h325.333c35.346 0 64 28.654 64 64s-28.654 64-64 64v0h-325.376l71.765 71.765c11.589 11.584 18.757 27.589 18.757 45.269 0 35.349-28.656 64.005-64.005 64.005-17.669 0-33.666-7.16-45.248-18.736l-181.034-181.077c-11.578-11.581-18.738-27.578-18.738-45.248s7.161-33.667 18.739-45.248l181.034-181.034c11.581-11.578 27.578-18.738 45.248-18.738s33.667 7.161 45.248 18.739v0zM917.333 682.667c0 35.346-28.654 64-64 64s-64-28.654-64-64v0-512c0-35.346 28.654-64 64-64s64 28.654 64 64v0z" />
<glyph unicode="&#xe93b;" glyph-name="align_arrow_left_line" d="M371.328 215.467c7.731 7.723 12.514 18.396 12.514 30.187s-4.782 22.464-12.513 30.186l-108.203 108.16h376.875c23.564 0 42.667 19.103 42.667 42.667s-19.103 42.667-42.667 42.667v0h-376.875l108.203 108.203c7.716 7.722 12.489 18.386 12.489 30.165 0 23.569-19.106 42.675-42.675 42.675-11.79 0-22.463-4.781-30.186-12.51l-180.992-181.035c-7.718-7.721-12.492-18.386-12.492-30.165s4.774-22.445 12.492-30.165l180.992-181.035c7.723-7.731 18.396-12.514 30.187-12.514s22.464 4.782 30.186 12.513v0zM896 682.667c0 23.564-19.103 42.667-42.667 42.667s-42.667-19.103-42.667-42.667v0-512c0-23.564 19.103-42.667 42.667-42.667s42.667 19.103 42.667 42.667v0z" />
<glyph unicode="&#xe93c;" glyph-name="align_arrow_right_fill" d="M637.611 652.928c-11.578-11.581-18.738-27.578-18.738-45.248s7.161-33.667 18.739-45.248l71.765-71.765h-325.376c-35.346 0-64-28.654-64-64s28.654-64 64-64v0h325.376l-71.765-71.765c-12.054-11.654-19.538-27.97-19.538-46.034 0-35.346 28.654-64 64-64 18.064 0 34.38 7.484 46.017 19.52l0.017 0.018 181.035 180.992c11.578 11.581 18.738 27.578 18.738 45.248s-7.161 33.667-18.739 45.248l-181.034 181.034c-11.581 11.578-27.578 18.738-45.248 18.738s-33.667-7.161-45.248-18.739v0zM106.667 128c0-35.346 28.654-64 64-64s64 28.654 64 64v0 597.333c0 35.346-28.654 64-64 64s-64-28.654-64-64v0z" />
<glyph unicode="&#xe93d;" glyph-name="align_arrow_right_line" d="M652.672 637.867c-7.731-7.723-12.514-18.396-12.514-30.187s4.782-22.464 12.513-30.186l108.203-108.16h-376.875c-23.564 0-42.667-19.103-42.667-42.667s19.103-42.667 42.667-42.667v0h376.875l-108.203-108.203c-7.716-7.722-12.489-18.386-12.489-30.165 0-23.569 19.106-42.675 42.675-42.675 11.79 0 22.463 4.781 30.186 12.51l180.992 181.035c7.718 7.721 12.492 18.386 12.492 30.165s-4.774 22.445-12.492 30.165l-180.992 181.035c-7.723 7.731-18.396 12.514-30.187 12.514s-22.464-4.782-30.186-12.513v0zM128 128c0-23.564 19.103-42.667 42.667-42.667s42.667 19.103 42.667 42.667v0 597.333c0 23.564-19.103 42.667-42.667 42.667s-42.667-19.103-42.667-42.667v0z" />
<glyph unicode="&#xe93e;" glyph-name="align_arrow_up_fill" d="M285.739 552.278c11.581-11.578 27.578-18.738 45.248-18.738s33.667 7.161 45.248 18.739l71.765 71.722v-325.333c0-35.346 28.654-64 64-64s64 28.654 64 64v0 325.376l71.765-71.765c11.654-12.054 27.97-19.538 46.034-19.538 35.346 0 64 28.654 64 64 0 18.064-7.484 34.38-19.52 46.017l-0.018 0.017-180.992 181.035c-11.581 11.578-27.578 18.738-45.248 18.738s-33.667-7.161-45.248-18.739l-181.034-181.034c-11.578-11.581-18.738-27.578-18.738-45.248s7.161-33.667 18.739-45.248v0zM810.667 21.334c35.346 0 64 28.654 64 64s-28.654 64-64 64v0h-597.333c-35.346 0-64-28.654-64-64s28.654-64 64-64v0z" />
<glyph unicode="&#xe93f;" glyph-name="align_arrow_up_line" d="M300.8 567.339c7.723-7.731 18.396-12.514 30.187-12.514s22.464 4.782 30.186 12.513l108.16 108.203v-376.875c0-23.564 19.103-42.667 42.667-42.667s42.667 19.103 42.667 42.667v0 376.875l108.203-108.203c7.722-7.716 18.386-12.489 30.165-12.489 23.569 0 42.675 19.106 42.675 42.675 0 11.79-4.781 22.463-12.51 30.186l-181.035 180.992c-7.721 7.718-18.386 12.492-30.165 12.492s-22.445-4.774-30.165-12.492l-181.035-180.992c-7.731-7.723-12.514-18.396-12.514-30.187s4.782-22.464 12.513-30.186v0zM810.667 42.667c23.564 0 42.667 19.103 42.667 42.667s-19.103 42.667-42.667 42.667v0h-597.333c-23.564 0-42.667-19.103-42.667-42.667s19.103-42.667 42.667-42.667v0z" />
<glyph unicode="&#xe940;" glyph-name="align_bottom_fill" d="M213.333 810.667c-47.128 0-85.333-38.205-85.333-85.333v0-597.333c0-47.128 38.205-85.333 85.333-85.333v0h170.667c47.128 0 85.333 38.205 85.333 85.333v0 597.333c0 47.128-38.205 85.333-85.333 85.333v0zM640 640c-47.128 0-85.333-38.205-85.333-85.333v0-426.667c0-47.128 38.205-85.333 85.333-85.333v0h170.667c47.128 0 85.333 38.205 85.333 85.333v0 426.667c0 47.128-38.205 85.333-85.333 85.333v0z" />
<glyph unicode="&#xe941;" glyph-name="align_bottom_line" d="M213.333 810.667c-47.128 0-85.333-38.205-85.333-85.333v0-597.333c0-47.128 38.205-85.333 85.333-85.333v0h170.667c47.128 0 85.333 38.205 85.333 85.333v0 597.333c0 47.128-38.205 85.333-85.333 85.333v0zM213.333 725.334h170.667v-597.333h-170.667zM640 640c-47.128 0-85.333-38.205-85.333-85.333v0-426.667c0-47.128 38.205-85.333 85.333-85.333v0h170.667c47.128 0 85.333 38.205 85.333 85.333v0 426.667c0 47.128-38.205 85.333-85.333 85.333v0zM640 554.667h170.667v-426.667h-170.667z" />
<glyph unicode="&#xe942;" glyph-name="align_center_fill" d="M725.333 192c35.333-0.018 63.968-28.665 63.968-64 0-33.172-25.236-60.449-57.557-63.68l-0.267-0.022-6.144-0.299h-426.667c-35.333 0.018-63.968 28.665-63.968 64 0 33.172 25.236 60.449 57.557 63.68l0.267 0.022 6.144 0.299zM853.333 405.334c35.346 0 64-28.654 64-64s-28.654-64-64-64v0h-682.667c-35.346 0-64 28.654-64 64s28.654 64 64 64v0zM725.333 618.667c35.333-0.018 63.968-28.665 63.968-64 0-33.172-25.236-60.449-57.557-63.68l-0.267-0.022-6.144-0.299h-426.667c-35.333 0.018-63.968 28.665-63.968 64 0 33.172 25.236 60.449 57.557 63.68l0.267 0.022 6.144 0.299zM853.333 832c35.333-0.018 63.968-28.665 63.968-64 0-33.172-25.236-60.449-57.557-63.68l-0.267-0.022-6.144-0.299h-682.667c-35.333 0.018-63.968 28.665-63.968 64 0 33.172 25.236 60.449 57.557 63.68l0.267 0.022 6.144 0.299z" />
<glyph unicode="&#xe943;" glyph-name="align_center_line" d="M725.333 170.667c23.544-0.027 42.619-19.119 42.619-42.667 0-21.788-16.332-39.762-37.421-42.347l-0.206-0.021-4.992-0.299h-426.667c-23.544 0.027-42.619 19.119-42.619 42.667 0 21.788 16.332 39.762 37.421 42.347l0.206 0.021 4.992 0.299zM853.333 384c23.564 0 42.667-19.103 42.667-42.667s-19.103-42.667-42.667-42.667v0h-682.667c-23.564 0-42.667 19.103-42.667 42.667s19.103 42.667 42.667 42.667v0zM725.333 597.334c23.544-0.027 42.619-19.119 42.619-42.667 0-21.788-16.332-39.762-37.421-42.347l-0.206-0.021-4.992-0.299h-426.667c-23.544 0.027-42.619 19.119-42.619 42.667 0 21.788 16.332 39.762 37.421 42.347l0.206 0.021 4.992 0.299zM853.333 810.667c23.544-0.027 42.619-19.119 42.619-42.667 0-21.788-16.332-39.762-37.421-42.347l-0.206-0.021-4.992-0.299h-682.667c-23.544 0.027-42.619 19.119-42.619 42.667 0 21.788 16.332 39.762 37.421 42.347l0.206 0.021 4.992 0.299z" />
<glyph unicode="&#xe944;" glyph-name="align_horizontal_center_fill" d="M298.667 810.667c-47.128 0-85.333-38.205-85.333-85.333v0-170.667c0-47.128 38.205-85.333 85.333-85.333v0h426.667c47.128 0 85.333 38.205 85.333 85.333v0 170.667c0 47.128-38.205 85.333-85.333 85.333v0zM213.333 384c-47.128 0-85.333-38.205-85.333-85.333v0-170.667c0-47.128 38.205-85.333 85.333-85.333v0h597.333c47.128 0 85.333 38.205 85.333 85.333v0 170.667c0 47.128-38.205 85.333-85.333 85.333v0z" />
<glyph unicode="&#xe945;" glyph-name="align_horizontal_center_line" d="M298.667 810.667c-47.128 0-85.333-38.205-85.333-85.333v0-170.667c0-47.128 38.205-85.333 85.333-85.333v0h426.667c47.128 0 85.333 38.205 85.333 85.333v0 170.667c0 47.128-38.205 85.333-85.333 85.333v0zM298.667 725.334h426.667v-170.667h-426.667zM213.333 384c-47.128 0-85.333-38.205-85.333-85.333v0-170.667c0-47.128 38.205-85.333 85.333-85.333v0h597.333c47.128 0 85.333 38.205 85.333 85.333v0 170.667c0 47.128-38.205 85.333-85.333 85.333v0zM213.333 298.667h597.333v-170.667h-597.333z" />
<glyph unicode="&#xe946;" glyph-name="align_justify_fill" d="M170.667 832c-35.346 0-64-28.654-64-64s28.654-64 64-64v0h682.667c35.346 0 64 28.654 64 64s-28.654 64-64 64v0zM170.667 618.667c-35.346 0-64-28.654-64-64s28.654-64 64-64v0h682.667c35.346 0 64 28.654 64 64s-28.654 64-64 64v0zM106.667 341.334c0 35.346 28.654 64 64 64v0h682.667c35.346 0 64-28.654 64-64s-28.654-64-64-64v0h-682.667c-35.346 0-64 28.654-64 64v0zM170.667 192c-35.346 0-64-28.654-64-64s28.654-64 64-64v0h682.667c35.346 0 64 28.654 64 64s-28.654 64-64 64v0z" />
<glyph unicode="&#xe947;" glyph-name="align_justify_line" d="M170.667 810.667c-23.564 0-42.667-19.103-42.667-42.667s19.103-42.667 42.667-42.667v0h682.667c23.564 0 42.667 19.103 42.667 42.667s-19.103 42.667-42.667 42.667v0zM170.667 597.334c-23.564 0-42.667-19.103-42.667-42.667s19.103-42.667 42.667-42.667v0h682.667c23.564 0 42.667 19.103 42.667 42.667s-19.103 42.667-42.667 42.667v0zM128 341.334c0 23.564 19.103 42.667 42.667 42.667v0h682.667c23.564 0 42.667-19.103 42.667-42.667s-19.103-42.667-42.667-42.667v0h-682.667c-23.564 0-42.667 19.103-42.667 42.667v0zM170.667 170.667c-23.564 0-42.667-19.103-42.667-42.667s19.103-42.667 42.667-42.667v0h682.667c23.564 0 42.667 19.103 42.667 42.667s-19.103 42.667-42.667 42.667v0z" />
<glyph unicode="&#xe948;" glyph-name="align_left_2_fill" d="M213.333 810.667c-47.128 0-85.333-38.205-85.333-85.333v0-170.667c0-47.128 38.205-85.333 85.333-85.333v0h426.667c47.128 0 85.333 38.205 85.333 85.333v0 170.667c0 47.128-38.205 85.333-85.333 85.333v0zM213.333 384c-47.128 0-85.333-38.205-85.333-85.333v0-170.667c0-47.128 38.205-85.333 85.333-85.333v0h597.333c47.128 0 85.333 38.205 85.333 85.333v0 170.667c0 47.128-38.205 85.333-85.333 85.333v0z" />
<glyph unicode="&#xe949;" glyph-name="align_left_2_line" d="M213.333 810.667c-47.128 0-85.333-38.205-85.333-85.333v0-170.667c0-47.128 38.205-85.333 85.333-85.333v0h426.667c47.128 0 85.333 38.205 85.333 85.333v0 170.667c0 47.128-38.205 85.333-85.333 85.333v0zM213.333 725.334h426.667v-170.667h-426.667zM213.333 384c-47.128 0-85.333-38.205-85.333-85.333v0-170.667c0-47.128 38.205-85.333 85.333-85.333v0h597.333c47.128 0 85.333 38.205 85.333 85.333v0 170.667c0 47.128-38.205 85.333-85.333 85.333v0zM213.333 298.667h597.333v-170.667h-597.333z" />
<glyph unicode="&#xe94a;" glyph-name="align_left_fill" d="M597.333 192c35.333-0.018 63.968-28.665 63.968-64 0-33.172-25.236-60.449-57.557-63.68l-0.267-0.022-6.144-0.299h-426.667c-35.333 0.018-63.968 28.665-63.968 64 0 33.172 25.236 60.449 57.557 63.68l0.267 0.022 6.144 0.299zM853.333 405.334c35.346 0 64-28.654 64-64s-28.654-64-64-64v0h-682.667c-35.346 0-64 28.654-64 64s28.654 64 64 64v0zM597.333 618.667c35.333-0.018 63.968-28.665 63.968-64 0-33.172-25.236-60.449-57.557-63.68l-0.267-0.022-6.144-0.299h-426.667c-35.333 0.018-63.968 28.665-63.968 64 0 33.172 25.236 60.449 57.557 63.68l0.267 0.022 6.144 0.299zM853.333 832c35.333-0.018 63.968-28.665 63.968-64 0-33.172-25.236-60.449-57.557-63.68l-0.267-0.022-6.144-0.299h-682.667c-35.333 0.018-63.968 28.665-63.968 64 0 33.172 25.236 60.449 57.557 63.68l0.267 0.022 6.144 0.299z" />
<glyph unicode="&#xe94b;" glyph-name="align_left_line" d="M597.333 170.667c23.544-0.027 42.619-19.119 42.619-42.667 0-21.788-16.332-39.762-37.421-42.347l-0.206-0.021-4.992-0.299h-426.667c-23.544 0.027-42.619 19.119-42.619 42.667 0 21.788 16.332 39.762 37.421 42.347l0.206 0.021 4.992 0.299zM853.333 384c23.564 0 42.667-19.103 42.667-42.667s-19.103-42.667-42.667-42.667v0h-682.667c-23.564 0-42.667 19.103-42.667 42.667s19.103 42.667 42.667 42.667v0zM597.333 597.334c23.544-0.027 42.619-19.119 42.619-42.667 0-21.788-16.332-39.762-37.421-42.347l-0.206-0.021-4.992-0.299h-426.667c-23.544 0.027-42.619 19.119-42.619 42.667 0 21.788 16.332 39.762 37.421 42.347l0.206 0.021 4.992 0.299zM853.333 810.667c23.544-0.027 42.619-19.119 42.619-42.667 0-21.788-16.332-39.762-37.421-42.347l-0.206-0.021-4.992-0.299h-682.667c-23.544 0.027-42.619 19.119-42.619 42.667 0 21.788 16.332 39.762 37.421 42.347l0.206 0.021 4.992 0.299z" />
<glyph unicode="&#xe94c;" glyph-name="align_right_2_fill" d="M810.667 384c0.008 0 0.018 0 0.027 0 44.876 0 81.661-34.641 85.075-78.641l0.018-0.293 0.213-6.4v-170.667c0-0.008 0-0.018 0-0.027 0-44.876-34.641-81.661-78.641-85.075l-0.293-0.018-6.4-0.213h-597.333c-0.008 0-0.018 0-0.027 0-44.876 0-81.661 34.641-85.075 78.641l-0.018 0.293-0.213 6.4v170.667c0 0.008 0 0.018 0 0.027 0 44.876 34.641 81.661 78.641 85.075l0.293 0.018 6.4 0.213zM810.667 810.667c0.008 0 0.018 0 0.027 0 44.876 0 81.661-34.641 85.075-78.641l0.018-0.293 0.213-6.4v-170.667c0-0.008 0-0.018 0-0.027 0-44.876-34.641-81.661-78.641-85.075l-0.293-0.018-6.4-0.213h-426.667c-0.008 0-0.018 0-0.027 0-44.876 0-81.661 34.641-85.075 78.641l-0.018 0.293-0.213 6.4v170.667c0 0.008 0 0.018 0 0.027 0 44.876 34.641 81.661 78.641 85.075l0.293 0.018 6.4 0.213z" />
<glyph unicode="&#xe94d;" glyph-name="align_right_2_line" d="M384 810.667c-47.128 0-85.333-38.205-85.333-85.333v0-170.667c0-47.128 38.205-85.333 85.333-85.333v0h426.667c47.128 0 85.333 38.205 85.333 85.333v0 170.667c0 47.128-38.205 85.333-85.333 85.333v0zM384 725.334h426.667v-170.667h-426.667zM213.333 384c-47.128 0-85.333-38.205-85.333-85.333v0-170.667c0-47.128 38.205-85.333 85.333-85.333v0h597.333c47.128 0 85.333 38.205 85.333 85.333v0 170.667c0 47.128-38.205 85.333-85.333 85.333v0zM213.333 298.667h597.333v-170.667h-597.333z" />
<glyph unicode="&#xe94e;" glyph-name="align_right_fill" d="M853.333 192c35.333-0.018 63.968-28.665 63.968-64 0-33.172-25.236-60.449-57.557-63.68l-0.267-0.022-6.144-0.299h-426.667c-35.333 0.018-63.968 28.665-63.968 64 0 33.172 25.236 60.449 57.557 63.68l0.267 0.022 6.144 0.299zM853.333 405.334c35.346 0 64-28.654 64-64s-28.654-64-64-64v0h-682.667c-35.346 0-64 28.654-64 64s28.654 64 64 64v0zM853.333 618.667c35.333-0.018 63.968-28.665 63.968-64 0-33.172-25.236-60.449-57.557-63.68l-0.267-0.022-6.144-0.299h-426.667c-35.333 0.018-63.968 28.665-63.968 64 0 33.172 25.236 60.449 57.557 63.68l0.267 0.022 6.144 0.299zM853.333 832c35.333-0.018 63.968-28.665 63.968-64 0-33.172-25.236-60.449-57.557-63.68l-0.267-0.022-6.144-0.299h-682.667c-35.333 0.018-63.968 28.665-63.968 64 0 33.172 25.236 60.449 57.557 63.68l0.267 0.022 6.144 0.299z" />
<glyph unicode="&#xe94f;" glyph-name="align_right_line" d="M853.333 170.667c23.544-0.027 42.619-19.119 42.619-42.667 0-21.788-16.332-39.762-37.421-42.347l-0.206-0.021-4.992-0.299h-426.667c-23.544 0.027-42.619 19.119-42.619 42.667 0 21.788 16.332 39.762 37.421 42.347l0.206 0.021 4.992 0.299zM853.333 384c23.564 0 42.667-19.103 42.667-42.667s-19.103-42.667-42.667-42.667v0h-682.667c-23.564 0-42.667 19.103-42.667 42.667s19.103 42.667 42.667 42.667v0zM853.333 597.334c23.544-0.027 42.619-19.119 42.619-42.667 0-21.788-16.332-39.762-37.421-42.347l-0.206-0.021-4.992-0.299h-426.667c-23.544 0.027-42.619 19.119-42.619 42.667 0 21.788 16.332 39.762 37.421 42.347l0.206 0.021 4.992 0.299zM853.333 810.667c23.544-0.027 42.619-19.119 42.619-42.667 0-21.788-16.332-39.762-37.421-42.347l-0.206-0.021-4.992-0.299h-682.667c-23.544 0.027-42.619 19.119-42.619 42.667 0 21.788 16.332 39.762 37.421 42.347l0.206 0.021 4.992 0.299z" />
<glyph unicode="&#xe950;" glyph-name="align_top_fill" d="M213.333 810.667c-47.128 0-85.333-38.205-85.333-85.333v0-597.333c0-47.128 38.205-85.333 85.333-85.333v0h170.667c47.128 0 85.333 38.205 85.333 85.333v0 597.333c0 47.128-38.205 85.333-85.333 85.333v0zM640 810.667c-47.128 0-85.333-38.205-85.333-85.333v0-426.667c0-47.128 38.205-85.333 85.333-85.333v0h170.667c47.128 0 85.333 38.205 85.333 85.333v0 426.667c0 47.128-38.205 85.333-85.333 85.333v0z" />
<glyph unicode="&#xe951;" glyph-name="align_top_line" d="M213.333 810.667c-47.128 0-85.333-38.205-85.333-85.333v0-597.333c0-47.128 38.205-85.333 85.333-85.333v0h170.667c47.128 0 85.333 38.205 85.333 85.333v0 597.333c0 47.128-38.205 85.333-85.333 85.333v0zM213.333 725.334h170.667v-597.333h-170.667zM640 810.667c-47.128 0-85.333-38.205-85.333-85.333v0-426.667c0-47.128 38.205-85.333 85.333-85.333v0h170.667c47.128 0 85.333 38.205 85.333 85.333v0 426.667c0 47.128-38.205 85.333-85.333 85.333v0zM640 725.334h170.667v-426.667h-170.667z" />
<glyph unicode="&#xe952;" glyph-name="align_vertical_center_fill" d="M213.333 810.667c-47.128 0-85.333-38.205-85.333-85.333v0-597.333c0-47.128 38.205-85.333 85.333-85.333v0h170.667c47.128 0 85.333 38.205 85.333 85.333v0 597.333c0 47.128-38.205 85.333-85.333 85.333v0zM640 725.334c-47.128 0-85.333-38.205-85.333-85.333v0-426.667c0-47.128 38.205-85.333 85.333-85.333v0h170.667c47.128 0 85.333 38.205 85.333 85.333v0 426.667c0 47.128-38.205 85.333-85.333 85.333v0z" />
<glyph unicode="&#xe953;" glyph-name="align_vertical_center_line" d="M213.333 810.667c-47.128 0-85.333-38.205-85.333-85.333v0-597.333c0-47.128 38.205-85.333 85.333-85.333v0h170.667c47.128 0 85.333 38.205 85.333 85.333v0 597.333c0 47.128-38.205 85.333-85.333 85.333v0zM213.333 725.334h170.667v-597.333h-170.667zM640 725.334c-47.128 0-85.333-38.205-85.333-85.333v0-426.667c0-47.128 38.205-85.333 85.333-85.333v0h170.667c47.128 0 85.333 38.205 85.333 85.333v0 426.667c0 47.128-38.205 85.333-85.333 85.333v0zM640 640h170.667v-426.667h-170.667z" />
<glyph unicode="&#xe954;" glyph-name="alipay_fill" d="M891.435 231.339c29.764 56.553 47.232 123.577 47.232 194.681 0 0.227 0 0.455-0.001 0.682v-0.035c0 235.648-191.019 426.667-426.667 426.667s-426.667-191.019-426.667-426.667 191.019-426.667 426.667-426.667c0.113 0 0.246 0 0.379 0 133.956 0 253.466 61.85 331.531 158.55l0.633 0.811-30.933 15.445c-112.773 49.269-157.524 70.472-202.107 91.966l65.915-28.649c-34.347 16.171-64.939 30.549-93.013 43.221-12.43-17.688-25.422-33.212-39.591-47.571l0.039 0.040c-47.872-47.787-96-63.147-139.52-63.147-79.701 0-149.333 50.347-149.333 128 0 71.851 63.147 128 128 128 54.101 0 106.411-14.251 165.845-37.717 9.045 17.365 18.261 36.949 27.605 59.051h-193.451c-23.564 0-42.667 19.103-42.667 42.667s19.103 42.667 42.667 42.667v0h85.333v21.333h-128c-23.564 0-42.667 19.103-42.667 42.667s19.103 42.667 42.667 42.667v0h128v42.667c0 23.564 19.103 42.667 42.667 42.667s42.667-19.103 42.667-42.667v0-42.667h128c23.564 0 42.667-19.103 42.667-42.667s-19.103-42.667-42.667-42.667v0h-128v-21.333h85.333c0.004 0 0.008 0 0.013 0 23.564 0 42.667-19.103 42.667-42.667 0-5.236-0.943-10.252-2.669-14.887l0.096 0.295c-17.395-48.563-34.836-88.478-54.535-127.048l2.823 6.088c26.837-12.245 56.021-25.984 87.893-40.96 40.021-18.859 84.267-39.68 133.376-61.995l1.408-0.683zM384 341.334c35.285 0 71.979-8.277 119.339-25.941-6.163-7.746-12.333-14.659-18.865-21.212l0.006 0.006c-32.128-32.213-58.667-38.187-79.147-38.187-48.299 0-64 26.453-64 42.667 0 22.016 22.187 42.667 42.667 42.667z" />
<glyph unicode="&#xe955;" glyph-name="alipay_line" d="M512 853.334c235.648 0 426.668-191.019 426.668-426.667 0.142-81.931-23.418-162.155-67.841-230.997-1.307-2.882-2.928-5.605-4.831-8.121l-3.062-3.612c-79.636-115.265-210.834-184.030-350.933-183.936-235.648 0-426.667 191.019-426.667 426.667s191.019 426.667 426.667 426.667zM767.316 653.022c-94.070 106.017-243.871 142.869-376.39 92.595s-220.181-177.214-220.259-318.95c-0.010-141.074 86.769-267.619 218.371-318.439s280.91-15.445 375.719 89.021l-71.105 33.22-74.263 34.845-34.941 16.031c-13.141-18.517-26.368-34.219-39.595-47.531-47.872-47.829-96-63.147-139.52-63.147-79.701 0-149.333 50.347-149.333 128 0 71.851 63.147 128 128 128 54.059 0 106.411-14.251 165.845-37.717 6.657 12.872 12.969 25.917 18.93 39.123l8.676 19.927h-193.451c-23.564 0-42.667 19.103-42.667 42.667 0 21.881 16.471 39.915 37.691 42.38l4.976 0.287h85.333v21.333h-128c-23.564 0-42.667 19.103-42.667 42.667 0 21.881 16.471 39.915 37.691 42.38l4.976 0.287h128v42.667c0 23.564 19.103 42.667 42.667 42.667 21.881 0 39.915-16.471 42.38-37.691l0.287-4.976v-42.667h128c23.564 0 42.667-19.103 42.667-42.667 0-21.881-16.471-39.915-37.691-42.38l-4.976-0.287h-128v-21.333h85.333c13.915-0.010 26.951-6.805 34.929-18.206s9.894-25.977 5.135-39.053c-16.939-46.72-34.219-86.784-51.627-120.96l33.322-15.395 131.828-61.771c6.852-3.181 13.81-6.401 20.876-9.661 65.687 125.595 46.922 278.716-47.148 384.734zM384 341.334c-20.48 0-42.667-20.651-42.667-42.667 0-16.213 15.701-42.667 64-42.667l8.514 0.367c19.142 1.693 42.788 9.902 70.633 37.82 6.683 6.705 12.98 13.785 18.859 21.205-47.36 17.664-84.053 25.941-119.339 25.941z" />
<glyph unicode="&#xe956;" glyph-name="american_football_fill" d="M318.165 724.182c9.6 12.501 19.627 24.32 29.867 35.371 39.33-47.121 98.085-76.885 163.791-76.885 0.062 0 0.125 0 0.187 0h-0.010c0.065 0 0.142 0 0.22 0 65.706 0 124.461 29.765 163.516 76.546l0.275 0.339c10.24-11.008 20.224-22.869 29.867-35.413 57.685-75.179 104.789-180.139 104.789-297.472s-47.061-222.251-104.832-297.515c-9.6-12.501-19.627-24.32-29.867-35.371-39.33 47.121-98.085 76.885-163.791 76.885-0.062 0-0.125 0-0.187 0h0.010c-0.065 0-0.142 0-0.22 0-65.706 0-124.461-29.765-163.516-76.546l-0.275-0.339c-10.24 11.008-20.224 22.869-29.867 35.413-57.685 75.179-104.789 180.139-104.789 297.472s47.061 222.251 104.832 297.515zM554.667 554.667c0 23.564-19.103 42.667-42.667 42.667s-42.667-19.103-42.667-42.667v0c-23.564 0-42.667-19.103-42.667-42.667s19.103-42.667 42.667-42.667v0-85.333c-23.564 0-42.667-19.103-42.667-42.667s19.103-42.667 42.667-42.667v0c0-23.564 19.103-42.667 42.667-42.667s42.667 19.103 42.667 42.667v0c23.564 0 42.667 19.103 42.667 42.667s-19.103 42.667-42.667 42.667v0 85.333c23.564 0 42.667 19.103 42.667 42.667s-19.103 42.667-42.667 42.667v0zM412.16 37.462c30.848-21.333 66.005-37.461 99.84-37.461s68.992 16.128 99.84 37.461c-23.607 29.29-59.481 47.872-99.695 47.872-0.051 0-0.102 0-0.153 0h0.008c-40.363 0-76.373-18.688-99.84-47.872zM512 853.334c33.835 0 68.992-16.128 99.84-37.461-23.607-29.29-59.481-47.872-99.695-47.872-0.051 0-0.102 0-0.153 0h0.008c-40.363 0-76.373 18.688-99.84 47.872 30.848 21.333 66.005 37.461 99.84 37.461z" />
<glyph unicode="&#xe957;" glyph-name="american_football_line" d="M512 853.334c34.005 0 69.333-16.299 100.309-37.803 32.128-22.272 64.597-53.632 93.525-91.349 57.771-75.264 104.832-180.181 104.832-297.515s-47.061-222.251-104.832-297.515c-28.928-37.717-61.397-69.077-93.525-91.349-30.976-21.504-66.304-37.803-100.309-37.803s-69.333 16.299-100.309 37.803c-32.128 22.272-64.597 53.632-93.525 91.349-57.771 75.264-104.832 180.181-104.832 297.515s47.061 222.251 104.832 297.515c28.928 37.717 61.397 69.077 93.525 91.349 30.976 21.504 66.304 37.803 100.309 37.803zM512 128c-21.419 0-41.6-5.248-59.349-14.549l7.68-5.547c25.003-17.365 43.008-22.571 51.669-22.571s26.667 5.205 51.669 22.571l7.68 5.547c-17.151 9.166-37.514 14.55-59.134 14.55-0.076 0-0.151 0-0.227 0h0.012zM633.6 678.016c-33.841-23.788-75.902-38.016-121.285-38.016-0.111 0-0.221 0-0.332 0h0.017c-0.091 0-0.198 0-0.305 0-41.704 0-80.602 12.015-113.421 32.772l0.873-0.515-8.747 5.717-4.565-5.803c-48.896-63.659-87.168-150.784-87.168-245.504 0-89.728 34.347-172.629 79.531-235.307l7.68-10.24 4.523-5.845c33.854 23.814 75.937 38.059 121.347 38.059 0.089 0 0.178 0 0.268 0h-0.014c41.387 0 80.128-11.819 112.811-32.256l8.789-5.803 4.565 5.845c48.896 63.701 87.168 150.827 87.168 245.547 0 89.728-34.347 172.629-79.531 235.307l-7.68 10.24zM512 597.334c23.564 0 42.667-19.103 42.667-42.667v0c23.544-0.027 42.619-19.119 42.619-42.667 0-21.788-16.332-39.762-37.421-42.347l-0.206-0.021-4.992-0.299v-85.333c23.564 0 42.667-19.103 42.667-42.667s-19.103-42.667-42.667-42.667v0c0-23.564-19.103-42.667-42.667-42.667s-42.667 19.103-42.667 42.667v0c-23.544 0.027-42.619 19.119-42.619 42.667 0 21.788 16.332 39.762 37.421 42.347l0.206 0.021 4.992 0.299v85.333c-23.564 0-42.667 19.103-42.667 42.667s19.103 42.667 42.667 42.667v0c0 23.564 19.103 42.667 42.667 42.667v0zM512 768c-8.661 0-26.667-5.205-51.669-22.571l-7.68-5.547c17.749-9.301 37.931-14.549 59.349-14.549s41.6 5.248 59.349 14.507l-7.68 5.589c-25.003 17.365-43.008 22.571-51.669 22.571z" />
<glyph unicode="&#xe958;" glyph-name="anchor_fill" d="M448 501.59c-75.084 27.251-127.754 97.971-127.754 180.992 0 105.969 85.811 191.896 191.736 192.085h0.018c0.049 0 0.107 0 0.164 0 106.039 0 192-85.961 192-192 0-83.159-52.868-153.97-126.826-180.656l-1.338-0.422v-388.523c125.778 26.42 223.18 123.822 249.232 247.511l0.368 2.089h-57.6c-35.346 0-64 28.654-64 64s28.654 64 64 64v0h128c35.346 0 64-28.654 64-64v0c0-247.424-200.576-448-448-448s-448 200.576-448 448c0 35.346 28.654 64 64 64v0h128c35.346 0 64-28.654 64-64s-28.654-64-64-64v0h-57.6c26.42-125.778 123.822-223.18 247.511-249.232l2.089-0.368zM512 746.667c-35.346 0-64-28.654-64-64s28.654-64 64-64v0c35.346 0 64 28.654 64 64s-28.654 64-64 64v0z" />
<glyph unicode="&#xe959;" glyph-name="anchor_line" d="M469.333 517.376c-73.991 19.803-127.587 86.245-127.587 165.206 0 94.129 76.164 170.468 170.227 170.751h0.027c0.050 0 0.109 0 0.169 0 94.257 0 170.667-76.41 170.667-170.667 0-79.156-53.888-145.725-126.979-165.024l-1.19-0.267v-429.397c154.728 20.098 275.923 141.294 295.839 294.303l0.183 1.718h-82.688c-23.564 0-42.667 19.103-42.667 42.667s19.103 42.667 42.667 42.667v0h128c23.564 0 42.667-19.103 42.667-42.667v0c0-235.648-191.019-426.667-426.667-426.667s-426.667 191.019-426.667 426.667c0 23.564 19.103 42.667 42.667 42.667v0h128c23.564 0 42.667-19.103 42.667-42.667s-19.103-42.667-42.667-42.667v0h-82.688c20.098-154.728 141.294-275.923 294.303-295.839l1.718-0.183zM512 768c-47.128 0-85.333-38.205-85.333-85.333s38.205-85.333 85.333-85.333v0c47.128 0 85.333 38.205 85.333 85.333s-38.205 85.333-85.333 85.333v0z" />
<glyph unicode="&#xe95a;" glyph-name="and_fill" d="M342.059 816.598c32.401 31.619 76.75 51.124 125.653 51.124 99.399 0 179.978-80.579 179.978-179.978 0-50.495-20.795-96.133-54.288-128.818l-0.036-0.035-7.083-6.357-52.949-45.227 174.891-204.075c14.080 29.355 28.203 63.232 42.155 102.357 9.112 24.971 32.656 42.476 60.288 42.476 35.359 0 64.023-28.664 64.023-64.023 0-7.727-1.369-15.133-3.877-21.991l0.142 0.445c-20.352-56.96-41.856-106.155-64.427-148.48l-8.533-15.531 61.269-71.467c9.613-11.132 15.468-25.743 15.468-41.722 0-35.346-28.654-64-64-64-17.126 0-32.68 6.727-44.166 17.682l0.025-0.024-4.523 4.779-40.405 47.147c-12.763-13.941-26.193-26.71-40.461-38.502l-0.67-0.538c-73.301-60.032-147.883-73.173-211.2-73.173-137.813 0-277.333 109.909-277.333 277.333 0 48.469 18.347 93.141 40.32 129.835 22.229 37.163 50.901 70.784 77.952 98.432 10.496 10.667 20.907 20.736 30.976 29.909l9.899 8.96-25.557 29.781c-28.324 32.897-45.572 76.034-45.572 123.199 0 48.824 18.483 93.331 48.833 126.907l-0.146-0.164 6.784 7.125zM434.475 425.899c-10.539-9.387-21.675-19.883-32.725-31.189-22.955-23.467-44.288-49.067-59.563-74.581-15.573-26.027-22.187-47.531-22.187-64.128 0-88.576 73.813-149.333 149.333-149.333 43.349 0 86.101 8.192 130.133 44.203 9.813 8.021 19.883 17.579 30.251 29.141l7.808 8.96zM506.069 726.059c-9.406 9.416-22.406 15.241-36.767 15.241-12.336 0-23.669-4.298-32.581-11.479l0.1 0.078-4.267-3.84-6.571-6.571-4.267-4.693c-17.152-21.12-18.347-51.2-2.816-73.557l3.84-5.035 27.307-31.787 53.077 45.397 4.267 4.139c8.62 9.25 13.912 21.702 13.912 35.389 0 14.336-5.805 27.316-15.192 36.718l0.001-0.001z" />
<glyph unicode="&#xe95b;" glyph-name="and_line" d="M521.173 741.12c30.208-30.165 28.245-79.744-4.181-107.52l-69.291-59.221-40.997 47.849c-12.466 14.472-20.002 33.311-20.002 53.91 0 22.808 9.239 43.458 24.178 58.411l6.613 6.571c13.266 13.27 31.594 21.477 51.84 21.477s38.574-8.208 51.84-21.478zM503.253 509.568l69.163 59.179c34.105 29.271 55.575 72.427 55.575 120.598 0 87.612-71.023 158.635-158.635 158.635-43.817 0-83.485-17.765-112.194-46.485l-6.614-6.614c-30.393-30.397-49.192-72.389-49.192-118.771 0-41.855 15.308-80.134 40.63-109.545l-0.185 0.22 39.339-45.909c-20.036-16.974-38.157-33.811-55.485-51.43l-0.11-0.112c-26.368-26.923-53.803-59.221-74.88-94.464-20.949-34.901-37.333-75.691-37.333-118.869 0-154.283 128.597-256 256-256 59.989 0 129.28 12.331 197.675 68.309 20.17 16.747 38.105 34.817 54.184 54.466l0.557 0.702 56.533-65.92c7.86-8.932 19.316-14.539 32.082-14.539 23.564 0 42.667 19.103 42.667 42.667 0 10.472-3.773 20.063-10.033 27.488l0.053-0.064-71.083 82.901c27.691 46.891 54.059 104.107 78.891 173.653 1.571 4.267 2.48 9.196 2.48 14.336 0 23.567-19.105 42.672-42.672 42.672-18.427 0-34.126-11.68-40.097-28.040l-0.095-0.297c-18.901-52.949-38.229-96.853-57.6-133.333l-209.664 244.565zM665.173 189.483l-0.6-0.833c-14.929-19.849-32.079-37.933-51.581-54.292-48.939-40.021-96.981-49.024-143.659-49.024-85.931 0-170.667 68.949-170.667 170.667 0 21.888 8.533 47.275 25.216 75.093 16.427 27.477 38.955 54.4 62.592 78.507l0.096 0.098c15.648 15.904 32.016 31.097 50.122 46.408l228.48-266.624z" />
<glyph unicode="&#xe95c;" glyph-name="android_2_fill" d="M787.072 763.478c14.086-7.164 23.567-21.551 23.567-38.153 0-6.948-1.661-13.508-4.607-19.306l0.112 0.243-50.091-100.267c110.98-78.014 182.613-205.495 182.613-349.708 0-0.101 0-0.202 0-0.303v0.016-42.667c0-47.128-38.205-85.333-85.333-85.333v0h-682.667c-47.128 0-85.333 38.205-85.333 85.333v0 42.667c0 0.098 0 0.214 0 0.33 0 144.212 71.633 271.694 181.259 348.804l1.355 0.903-50.091 100.224c-3.219 5.856-5.112 12.832-5.112 20.251 0 23.564 19.103 42.667 42.667 42.667 17.072 0 31.803-10.027 38.623-24.514l0.11-0.26 48.384-96.725c49.775 22.112 107.842 34.987 168.917 34.987 0.195 0 0.39 0 0.586 0h-0.031c60.203 0 117.547-12.459 169.472-34.987l48.384 96.725c7.164 14.086 21.551 23.567 38.153 23.567 6.948 0 13.508-1.661 19.306-4.607l-0.243 0.112zM320 426.667c-35.346 0-64-28.654-64-64s28.654-64 64-64v0c35.346 0 64 28.654 64 64s-28.654 64-64 64v0zM704 426.667c-35.346 0-64-28.654-64-64s28.654-64 64-64v0c35.346 0 64 28.654 64 64s-28.654 64-64 64v0z" />
<glyph unicode="&#xe95d;" glyph-name="android_2_line" d="M787.072 763.478c14.086-7.164 23.567-21.551 23.567-38.153 0-6.948-1.661-13.508-4.607-19.306l0.112 0.243-50.091-100.267c110.981-78.023 182.613-205.511 182.613-349.73 0-0.093 0-0.186 0-0.279v0.015-42.667c0-47.128-38.205-85.333-85.333-85.333v0h-682.667c-47.128 0-85.333 38.205-85.333 85.333v0 42.667c0 0.098 0 0.214 0 0.33 0 144.212 71.633 271.694 181.259 348.804l1.355 0.903-50.091 100.224c-2.483 5.248-3.933 11.401-3.933 17.893 0 23.564 19.103 42.667 42.667 42.667 16.145 0 30.196-8.967 37.443-22.193l48.495-96.947c49.775 22.112 107.842 34.987 168.917 34.987 0.195 0 0.39 0 0.586 0h-0.031c60.203 0 117.547-12.459 169.472-34.987l48.384 96.725c7.164 14.086 21.551 23.567 38.153 23.567 6.948 0 13.508-1.661 19.306-4.607l-0.243 0.112zM512 597.334c-188.513 0-341.333-152.82-341.333-341.333v0-42.667h682.667v42.667c0 188.513-152.82 341.333-341.333 341.333v0zM362.667 426.667c35.346 0 64-28.654 64-64s-28.654-64-64-64v0c-35.346 0-64 28.654-64 64s28.654 64 64 64v0zM661.333 426.667c35.346 0 64-28.654 64-64s-28.654-64-64-64v0c-35.346 0-64 28.654-64 64s28.654 64 64 64v0z" />
</font>
</defs>
</svg>
